Подозрительное устройство / Suspect Device (Джейкобсон / Rick Jacobson) [1995 г., Фантастика, DVDRip] АО (С.Визгунов)

Reply to topic
 
Author Message

admin ®

Gender: Male

Longevity: 7 years 7 months

Posts: 4811

Post 19-Nov-2013 12:03

[Quote]

Подозрительное устройство / Suspect Device
Год выпуска: 1995
Страна: США
Жанр: Фантастика
Продолжительность: 01:27:55
Перевод: Авторский одноголосый С.Визгунов
Режиссер: Джейкобсон / Rick Jacobson
В ролях: С. Томас Хауэлл, Стэйси Трэвис, Джед Аллан, Джон Бек, Маркус Аурелиус, Джонатан Фуллер, Джефф Эллин, Хайди Соренсон, Марк Джинтер
Описание: Очередной эксперимент ЦРУ приводит к созданию зловещего устройства, внедрение которого агентам делает их опасным оружием. Ловкие люди манипулируя им стремятся к абсолютному контролю. Но в систему вкрался маленький просчет — личность героя.
Качество: DVDRip
Формат: AVI
Видео: xvid, 1478 кбит/с, 512x4384, 23.976 к/с
Аудио 1: Русский (MP3, 2 ch, 192 Кбит/с)
Аудио 2: Английский (MP3, 2 ch, 140 Кбит/с)
Работа над релизом:




Пример русской озвучки

Дополнительно

слоган «Engineered to kill millions ... He now fights for their future»
Also Known As (AKA)
Roger Corman Presents 'Suspect Device'
Germany Das Terrorprojekt
Spain Sospechoso desconocido
France Complot mortel
Greece (video title) Kiniti vomva
===============================================
Для Украины: рип дополнительно залит в файлохранилище
Для удаления,добавления и извлечения дорожек в mkv используйте бесплатную портативную mkvmerge GUI 6.2.0
Для присоединения потом дорожек к avi воспользуйтесь VirtualDubMod

Знаете ли вы, что...

Отзывы

Кстати сиськи присутствуют только в DVD версии. А видимо Сергей Визгунов (переводчик) переводил ТВ версию фильма, в которой данный материал был вырезан. Причем в ТВ версии, отсутствует еще сцена после сисек, где главный герой подъезжает на машине к пункту охраны и общается с охранником. Из-за этого в этой DVD версии отсутствует переводы этих сцен (но там очень мало текста).
khalek сказал(а):
Сиськи всегда правильный ход! Надо качать.

MediaInfo

Общее
Полное имя : N:\Suspect Device 1995.XviD.DVDRip.avi
Формат : AVI
Формат/Информация : Audio Video Interleave
Размер файла : 1,12 Гбайт
Продолжительность : 1 ч. 27 м.
Режим общего битрейта : Переменный
Общий поток : 1826 Кбит/сек
Программа кодирования : VirtualDubModRus 1.5.10.2 (build 2542/release)
Библиотека кодирования : VirtualDubMod build 2542/release
Видео
Идентификатор : 0
Формат : MPEG-4 Visual
Профиль формата : Advanced Simple@L5
Параметр BVOP формата : 2
Параметр QPel формата : Нет
Параметр GMC формата : Без точки перехода
Параметр матрицы формата : Default (H.263)
Идентификатор кодека : XVID
Идентификатор кодека/Подсказка : XviD
Продолжительность : 1 ч. 27 м.
Битрейт : 1478 Кбит/сек
Ширина : 512 пикселей
Высота : 384 пикселя
Соотношение сторон : 4:3
Частота кадров : 23,976 кадра/сек
Цветовое пространство : YUV
Субдискретизация насыщенности : 4:2:0
Битовая глубина : 8 бит
Тип развёртки : Прогрессивная
Метод сжатия : С потерями
Бит/(Пиксели*Кадры) : 0.314
Размер потока : 930 Мбайт (81%)
Библиотека кодирования : XviD 1.0.3 (UTC 2004-12-20)
Аудио #1
Идентификатор : 1
Формат : MPEG Audio
Версия формата : Version 1
Профиль формата : Layer 3
Режим : Joint stereo
Идентификатор кодека : 55
Идентификатор кодека/Подсказка : MP3
Продолжительность : 1 ч. 27 м.
Вид битрейта : Постоянный
Битрейт : 192 Кбит/сек
Каналы : 2 канала
Частота : 48,0 КГц
Метод сжатия : С потерями
Размер потока : 121 Мбайт (11%)
Выравнивание : Соединение по промежуткам
Продолжительность промежутка : 42 мс. (1,00 видеокадр)
Время предзагрузки промежутка : 504 мс.
Заголовок : Русский
Аудио #2
Идентификатор : 2
Формат : MPEG Audio
Версия формата : Version 1
Профиль формата : Layer 3
Режим : Joint stereo
Расширение режима : MS Stereo
Идентификатор кодека : 55
Идентификатор кодека/Подсказка : MP3
Продолжительность : 1 ч. 27 м.
Вид битрейта : Переменный
Битрейт : 140 Кбит/сек
Каналы : 2 канала
Частота : 48,0 КГц
Метод сжатия : С потерями
Размер потока : 86,8 Мбайт (8%)
Выравнивание : Соединение по промежуткам
Продолжительность промежутка : 24 мс. (0,58 видеокадр)
Время предзагрузки промежутка : 531 мс.
Заголовок : Engl
Библиотека кодирования : LAME3.90.
Настройки программы : -m j -V 4 -q 2 -lowpass 17.6 --abr 140

Скриншоты


cd Рип дополнительно залит на ОБЛАКО cd2
[Profile] [PM]
Display posts:    
Reply to topic

Current time is: 07-Apr 06:14

All times are UTC + 3



You cannot post new topics in this forum
You cannot reply to topics in this forum
You cannot edit your posts in this forum
You cannot delete your posts in this forum
You cannot vote in polls in this forum
You cannot attach files in this forum
You cannot download files in this forum