Феникс (сериал e01x05) / The Phoenix (Дуглас Хикокс / Douglas Hickox, Реза Бадии / Reza Badiyi) [1981 г., Фантастика, VHSRip] ЛО (den904), СТ (Severnyj)

Reply to topic
DL-List and Torrent activity
Size:  759 MB   |    Registered:  1 year 5 months   |    Completed:  13 times

Seeder not seen: 11 hours

 
   
 
 
 
Author Message

admin ®

Gender: Male

Longevity: 9 years 1 month

Posts: 4771

Post 18-Nov-2013 18:19

[Quote]

Феникс / The Phoenix
Год выпуска: 1981
Страна: США
Жанр: Фантастика
Продолжительность: 01:11:17
Перевод: ЛО den904 по субтитрам от Severnyj
Режиссер: Дуглас Хикокс / Douglas Hickox, Реза Бадии / Reza Badiyi
В ролях:
Judson Scott ...
Bennu of the Golden Light / ... (5 episodes, 1981-1982)
Richard Lynch Richard Lynch ...
Justin Preminger (5 episodes, 1981-1982)
E.G. Marshall E.G. Marshall ...
Dr. Ward Frazier (2 episodes, 1981-1982)
Carmen Argenziano Carmen Argenziano ...
Dave / ... (2 episodes, 1981-1982)
Описание: Представлена полнометражная пилотная серия.
Археологическая экспедиция в Перу, исследуя древние руины инков, находит странный саркофаг. В лаборатории саркофаг вскрывают. Внутри него, в жидкости, похожей по биохимическому составу на утробу матери, находится странный белокурый человек с необычайными возможностями
....

Список эпизодов:
S01E00 - The Phoenix
S01E01 - In Search of Mira
S01E02 - One Of Them
S01E03 - A Presence of Evil
S01E04 - The Fire Within
Релиз

Качество:VHSRip
Формат: MKV
Видео: x264 Video 640x472, 29.97fps 1012 kb/s
Аудио 1: Русский ЛО (den904) (AC3, 2 ch, 224 Кбит/с)
Аудио 2: Английский (AC3, 2 ch, 224 Кбит/с)
Субтитры : Русские (Severnyj)
Работа над релизом:
Релиз - kosmoaelita
Рип с VHS-DVD - kosmoaelita
Перевод на слух с английского по заказу kosmoaelita - Severnyj
Русская озвучка по заказу kosmoaelita - den904
Спонсоры русской озвучки -



Пример русского перевода

MediaInfo

Общее
Уникальный идентификатор : 176742407563851550728562581020381744029 (0x84F75979F2BB98F6BE704FBD905B0B9D)
Полное имя : The Phoenix e01x05 1981.x264.VHSRip.Rus.kosmoaelita.mkv
Формат : Matroska
Версия формата : Version 4
Размер файла : 759 Мбайт
Продолжительность : 1 ч. 11 м.
Общий поток : 1489 Кбит/сек
Название фильма : The Phoenix e01x05 1981 / Релиз kosmoaelita
Дата кодирования : UTC 2020-05-03 08:48:27
Программа кодирования : mkvmerge v6.6.0 ('The Edge Of The In Between') built on Dec 1 2013 17:55:00
Библиотека кодирования : libebml v1.3.0 + libmatroska v1.4.1
Attachments : poster .jpg
Видео
Идентификатор : 1
Формат : AVC
Формат/Информация : Advanced Video Codec
Профиль формата : High@L4.1
Настройки формата : CABAC / 10 Ref Frames
Параметр CABAC формата : Да
Параметр RefFrames формата : 10 кадров
Идентификатор кодека : V_MPEG4/ISO/AVC
Продолжительность : 1 ч. 11 м.
Битрейт : 1012 Кбит/сек
Ширина : 640 пикселей
Высота : 472 пикселя
Соотношение сторон : 4:3
Режим частоты кадров : Постоянный
Частота кадров : 29,970 (30000/1001) кадров/сек
Цветовое пространство : YUV
Субдискретизация насыщенности : 4:2:0
Битовая глубина : 8 бит
Тип развёртки : Прогрессивная
Бит/(Пиксели*Кадры) : 0.112
Размер потока : 516 Мбайт (68%)
Заголовок : http://kosmoaelita.com/viewtopic.php?t=984
Библиотека кодирования : x264 core 130 r2273 b3065e6
Настройки программы : cabac=1 / ref=10 / deblock=1:-1:-2 / analyse=0x3:0x133 / me=umh / subme=10 / psy=1 / psy_rd=1.00:0.15 / mixed_ref=1 / me_range=24 / chroma_me=1 / trellis=2 / 8x8dct=1 / cqm=0 / deadzone=21,11 / fast_pskip=1 / chroma_qp_offset=-3 / threads=6 / lookahead_threads=1 / sliced_threads=0 / nr=0 / decimate=1 / interlaced=0 / bluray_compat=0 / constrained_intra=0 / bframes=10 / b_pyramid=2 / b_adapt=2 / b_bias=0 / direct=3 / weightb=1 / open_gop=0 / weightp=2 / keyint=210 / keyint_min=21 / scenecut=40 / intra_refresh=0 / rc_lookahead=60 / rc=crf / mbtree=1 / crf=20.0 / qcomp=0.60 / qpmin=0 / qpmax=69 / qpstep=4 / ip_ratio=1.25 / aq=1:0.90
Default : Да
Forced : Нет
Цветовой диапазон : Limited
Основные цвета : BT.601 PAL
Характеристики трансфера : BT.470 System B/G
Коэффициенты матрицы : BT.470 System B/G
Аудио #1
Идентификатор : 2
Формат : AC-3
Формат/Информация : Audio Coding 3
Коммерческое название : Dolby Digital
Идентификатор кодека : A_AC3
Продолжительность : 1 ч. 11 м.
Вид битрейта : Постоянный
Битрейт : 224 Кбит/сек
Каналы : 2 канала
ChannelLayout : L R
Частота : 48,0 КГц
Частота кадров : 31,250 кадров/сек (1536 SPF)
Метод сжатия : С потерями
Размер потока : 114 Мбайт (15%)
Заголовок : Русский ЛО (den904 для kosmoaelita.com)
Язык : Russian
ServiceKind/String : Complete Main
Default : Да
Forced : Нет
Аудио #2
Идентификатор : 3
Формат : AC-3
Формат/Информация : Audio Coding 3
Коммерческое название : Dolby Digital
Идентификатор кодека : A_AC3
Продолжительность : 1 ч. 11 м.
Вид битрейта : Постоянный
Битрейт : 224 Кбит/сек
Каналы : 2 канала
ChannelLayout : L R
Частота : 48,0 КГц
Частота кадров : 31,250 кадров/сек (1536 SPF)
Метод сжатия : С потерями
Размер потока : 114 Мбайт (15%)
Язык : English
ServiceKind/String : Complete Main
Default : Нет
Forced : Нет
Текст #1
Идентификатор : 4
Формат : UTF-8
Идентификатор кодека : S_TEXT/UTF8
Идентификатор кодека/Информация : UTF-8 Plain Text
Заголовок : Русский (kosmoaelita,Severnyj) srt
Язык : Russian
Default : Нет
Forced : Нет
Текст #2
Идентификатор : 5
Формат : VobSub
Режим смешивания : zlib
Идентификатор кодека : S_VOBSUB
Идентификатор кодека/Информация : Picture based subtitle format used on DVDs
Заголовок : Русский (kosmoaelita,Severnyj) VobSub
Язык : Russian
Default : Нет
Forced : Нет

Пример субтитров

1
00:00:05,813 --> 00:00:08,399
Феникс
(The Phoenix (e00), 1981г)
2
00:00:09,162 --> 00:00:12,313
Когда боги были ещё совсем молоды...
3
00:00:14,161 --> 00:00:17,918
...увидев, что люди живут,
словно дикие звери...
4
00:00:19,224 --> 00:00:21,224
Они их пожалели.
5
00:00:22,521 --> 00:00:30,521
И послали на Землю своё дитя,
для передачи им знания
Величайшего из Богов...
6
00:00:33,744 --> 00:00:35,744
...Бога Солнца.
7
00:00:45,897 --> 00:00:50,000
<i>Релиз
www.kosmoaelita.com</i>
8
00:01:28,505 --> 00:01:30,005
Сюда!
9
00:01:33,418 --> 00:01:36,434
Что вы тут нашли такого важного?
10
00:01:36,519 --> 00:01:38,824
Сейчас увидите, поверьте. Поехали.
11
00:02:01,103 --> 00:02:06,368
Уорд - это сеньор Диего ДеВарга
с кафедры классической древности
Латинской Америки.
12
00:02:06,580 --> 00:02:08,580
- Доктор Уорд Фрейзер.
- Привет.
13
00:02:08,658 --> 00:02:11,548
Рад знакомству, доктор. Я слышал о ваших
трудах в разных сферах науки.
14
00:02:11,916 --> 00:02:15,349
Сеньор ДеВарга официально приставлен
к нам для наблюдения.
15
00:02:15,505 --> 00:02:19,684
Наш национальный музей всегда поощрял
совместные археологические раскопки.
-------------------------
516
01:08:40,811 --> 01:08:46,023
Но она где-то там... Причина, цель.
517
01:08:46,662 --> 01:08:51,627
Меня ждёт то, что я должен найти.
Моя судьба.
518
01:08:52,560 --> 01:08:54,380
Я должен её найти!
519
01:09:05,609 --> 01:09:10,888
Перевод на слух с англ. Severnyj
Ред. sasha20072007
ноябь, 2013 года
The Phoenix e01x05 1981.x264.VHSRip.Rus.kosmoaelita.mkv.torrent
Torrent: Registered [ 2020-05-03 13:17 ]

Download .torrent

Download

15 KB

Status: checked
Completed: 13 times
Size: 759 MB
 
[Profile] [PM]

CROMAG

Gender: Male

Longevity: 6 years 1 month

Posts: 3698

Location: Прибалтика

Post 04-Mar-2017 22:32 (after 3 years 3 months)

[Quote]

Надо будет как нить добраться до него. Хотя качество кажись паршивое.
[Profile] [PM]

Darth_47

Gender: Male

Longevity: 2 years 5 months

Posts: 985

Post 17-Sep-2019 14:50 (after 2 years 6 months)

[Quote]

Раздача восстановлена в виде ремукса.
[Profile] [PM]

kosmoaelita

Gender: Male

Longevity: 9 years 1 month

Posts: 1834

Post 03-May-2020 13:17 (after 7 months 15 days)

[Quote]

Добавлена русская озвучка от den904
[Profile] [PM]
Display posts:    
Reply to topic

Current time is: 24-Oct 12:06

All times are UTC + 3



You cannot post new topics in this forum
You cannot reply to topics in this forum
You cannot edit your posts in this forum
You cannot delete your posts in this forum
You cannot vote in polls in this forum
You cannot attach files in this forum
You can download files in this forum