Части: Ужас клонов / The Clonus Horror (Роберт Файвсон / Robert Fiveson) [1979, США, ужасы, фантастика, DVDRip-AVC] VO Никита Севастьянов + Eng

Reply to topic
 
Author Message

admin ®

Gender: Male

Longevity: 7 years

Posts: 4725

Location: Україна

Post 07-Sep-2012 15:24

[Quote]

Части: Ужас клонов / The Clonus Horror
Страна: США
Жанр: ужасы, фантастика
Год выпуска: 1979
Продолжительность: 01:24:06
Перевод: Одноголосый закадровый Никита Севастьянов
Cубтитры: нет
Режиссер: Роберт Файвсон / Robert Fiveson
В ролях: Тим Доннелли, Полетт Брин, Дик Сарджент, Кинен Уинн, Дэвид Хукс, Питер Грейвз, Зейл Кесслер, Джеймс Мэнтелл, Лёрин Таттл, Фрэнк Эшмор
Описание: Сильные мира сего разрабатывают научный проект «Клонус», заключающийся в клонировании людей, стоящих на ключевых политических постах. Естественно, таких клонов не предполагается наделять никакими человеческими правами, превращая их в обыкновенных рабов. Конечно же данный проект является сверхсекретным, поэтому когда один из клонов пускается в бега, на него открывается настоящая охота.Сюжет картины «The Clonus Horror» послужил основой для создания фильма 2005 года «Остров» Майкла Бэйя
Качество видео: DVDRip-AVC
Формат видео: MKV
Видео: x264, 2000 Кbps, 674х574@958x574, 25fps
Аудио 1: Русский AC3 2 кн, 192 Кбит/с 48khz
Аудио 2: Английский AC3 2 кн, 224 Кбит/с 48khz


Релиз

Рип найден на CG
Постеры - в контейнере
Синхронизация звука - sasha20072007.
Озвучка - Никита Севастьянов
Сравнение с оригиналом DVD5

Дополнительно

Оценка 3,4 (1468), но можно поставить - 6,5 (неплохо)
Нам показывают выступление некоего выдающегося политика, а параллельно идут вставки с какого-то склада, где в прозрачных полиэтиленовых мешках хранятся трупы.Затем покажут некое счастливое место, где молодые здоровые люди занимаются спортом. Одного из “курсантов” поздравляют и сообщают: вскоре он едет в Америку (как и у многих советских людей, у обитателей этого интерната поездка в Америку означает исполнение всех желаний, а Америка является синонимом Земли обетованной).Он обнимается со своей подругой и идет в административный корпус, выпивает стакан сока за успех поездки и… вырубается. А затем тело волокут в операционную.Как оказалось, этот прекрасный комплекс – секретная ферма “Клонус”, где растят клонов влиятельных людей.Однажды одному из “курсантов” удается бежать и добраться до своего оригинала.Неплохой фильм с оригинальной идеей и сильной политической составляющей.
Низкобюджетный (фильм снят за три недели за 300 тысяч долларов) триллер, который с годами не утратил своей актуальности.Во многих местах написано, что именно в этом фильме почерпнули идеи создатели знаменитого “Острова”. Режиссер Роберт Файвсон даже судился с создателями блокбастера.
Есть неплохие актеры. Низкобюджетность не выпирает, по крайней мере, не мешает смотреть картину.
Для Украины: фильм дополнительно залит в файлохранилище
[pagesd=Ограничения]
Рейтинг MPAA лицам до 17 лет обязательно присутствие взрослого
Для удаления и добавления дорожек в mkv используйте бесплатную mkvmerge GUI 5.70

MediaInfo

Общее
Уникальный идентификатор : 242456557376454926760616499549226989729 (0xB6676F35429A4971B87B2AA4997CF8A1)
Полное имя : F:\Chasti.Uzhas.Klonov.1979.x264.DVDRip.(AVC).mkv
Формат : Matroska
Версия формата : Version 2
Размер файла : 1,47 Гбайт
Продолжительность : 1 ч. 26 м.
Общий поток : 2427 Кбит/сек
Название фильма : Части: Ужас клонов / The Clonus Horror / 1979
Дата кодирования : UTC 2012-06-21 20:47:27
Программа кодирования : mkvmerge v5.6.0 ('Kenya Kane') built on Jun 17 2012 19:15:15
Библиотека кодирования : libebml v1.2.3 + libmatroska v1.3.0
Attachment : Yes / Yes
Видео
Идентификатор : 1
Формат : AVC
Формат/Информация : Advanced Video Codec
Профиль формата : High@L3.0
Параметр CABAC формата : Да
Параметр ReFrames формата : 3 кадра
Параметр GOP формата : N=1
Идентификатор кодека : V_MPEG4/ISO/AVC
Продолжительность : 1 ч. 26 м.
Битрейт : 2000 Кбит/сек
Ширина : 674 пикселя
Высота : 574 пикселя
Соотношение сторон : 1,669
Соотношение сторон в оригинале : 1,670
Режим частоты кадров : Переменный
Частота кадров : 25,000 кадров/сек
Цветовое пространство : YUV
Субдискретизация насыщенности : 4:2:0
Битовая глубина : 8 бит
Тип развёртки : Прогрессивная
Бит/(Пиксели*Кадры) : 0.207
Размер потока : 1,19 Гбайт (81%)
Библиотека кодирования : x264 core 65
Настройки программы : cabac=1 / ref=3 / deblock=1:0:0 / analyse=0x3:0x133 / me=umh / subme=9 / psy_rd=1.0:1.0 / mixed_ref=1 / me_range=32 / chroma_me=1 / trellis=2 / 8x8dct=1 / cqm=0 / deadzone=21,11 / chroma_qp_offset=-4 / threads=6 / nr=0 / decimate=1 / mbaff=0 / bframes=6 / b_pyramid=1 / b_adapt=1 / b_bias=0 / direct=3 / wpredb=1 / keyint=250 / keyint_min=25 / scenecut=40(pre) / rc=2pass / bitrate=2000 / ratetol=1.0 / qcomp=0.60 / qpmin=10 / qpmax=51 / qpstep=4 / cplxblur=20.0 / qblur=0.5 / ip_ratio=1.40 / pb_ratio=1.30 / aq=1:1.00
Язык : English
Default : Да
Forced : Нет
Основные цвета : BT.601-6 525, BT.1358 525, BT.1700 NTSC, SMPTE 170M
Характеристики трансфера : BT.709-5, BT.1361
Коэффициенты матрицы : BT.601-6 525, BT.1358 525, BT.1700 NTSC, SMPTE 170M
Аудио #1
Идентификатор : 2
Формат : AC-3
Формат/Информация : Audio Coding 3
Расширение режима : CM (complete main)
Параметр Endianness формата : Big
Идентификатор кодека : A_AC3
Продолжительность : 1 ч. 26 м.
Вид битрейта : Постоянный
Битрейт : 192 Кбит/сек
Каналы : 2 канала
Расположение каналов : Front: L R
Частота : 48,0 КГц
Битовая глубина : 16 бит
Метод сжатия : С потерями
Размер потока : 119 Мбайт (8%)
Заголовок : Русский (Никита Севастьянов)
Язык : Russian
Default : Да
Forced : Да
Аудио #2
Идентификатор : 3
Формат : AC-3
Формат/Информация : Audio Coding 3
Расширение режима : CM (complete main)
Параметр Endianness формата : Big
Идентификатор кодека : A_AC3
Продолжительность : 1 ч. 26 м.
Вид битрейта : Постоянный
Битрейт : 224 Кбит/сек
Каналы : 2 канала
Расположение каналов : Front: L R
Частота : 48,0 КГц
Битовая глубина : 16 бит
Метод сжатия : С потерями
Размер потока : 139 Мбайт (9%)
Язык : English
Default : Нет
Forced : Нет
Меню
00:00:00.000 : en:01
00:05:00.233 : en:02
00:10:00.466 : en:03
00:15:10.933 : en:04
00:20:00.833 : en:05
00:25:00.333 : en:06
00:30:00.599 : en:07
00:35:00.266 : en:08
00:40:00.599 : en:09
00:45:00.000 : en:10
00:50:00.233 : en:11
00:55:00.466 : en:12
01:00:10.933 : en:13
01:10:00.833 : en:14
01:15:00.333 : en:15
01:20:00.599 : en:16
01:25:00.266 : en:17

Скриншоты




[/pagesd]
cd Рип дополнительно залит на mail.ru cd2
[Profile] [PM]
Display posts:    
Reply to topic

Current time is: 21-Sep 02:18

All times are UTC + 3



You cannot post new topics in this forum
You cannot reply to topics in this forum
You cannot edit your posts in this forum
You cannot delete your posts in this forum
You cannot vote in polls in this forum
You cannot attach files in this forum
You cannot download files in this forum