Подростки против Нечто / Тинейджеры против Нечто / Teenagers Battle the Thing (Дэйв Флокер / Dave Flocker) [1958 г., Фантастика, ужасы, DVDRip] АО (Horror Maker)

Reply to topic
 
Author Message

admin ®

Gender: Male

Longevity: 7 years 7 months

Posts: 4811

Post 05-Nov-2013 18:40

[Quote]


Подростки против Нечто / Тинейджеры против Нечто / Teenagers Battle the Thing

Год выпуска: 1958
Страна: США, Etiwanda Productions
Жанр: Фантастика, ужасы
Продолжительность: 00:59:57
Перевод: АО (Horror Maker)
Режиссер: Дэйв Флокер / Dave Flocker
В ролях:
Mary Brownless
Bob Clymire ... Roger Mason
Ken Koepfer ... Norman
Dennis Kottmeier
Ruth Ann Mannella ... Linda
Bill Simonsen ... Dr. Wyman
Jan Swihart ... Sharon
Описание: Студенты-археологи обнаруживают доисторического монстра...
Качество: DVDRip
Формат: MKV
Видео: x264, 2838 кбит/с, 720x540, 23.976 к/с
Аудио 1: Русский АО (Horror Maker) (AC3, 2 ch, 192 Кбит/с)
Аудио 2: Английский (AC3, 2 ch, 24 Кбит/с)
Работа над релизом:
Релиз: videodemons
За финансирование релиза спасибо - Pakin666, BloodyCorpse, killer snowman, PonchoUsatiy, bvedargh, skyelevator, AlexNever
Рип - kosmoaelita



Пример русского перевода

Дополнительно

слоган «The search for life is about to end»
Also Known As (AKA)
UK (working title) The Animator
Serbia Poslednji dani na Marsu

Знаете ли вы, что...

Отзывы

Рецензия

Лог кодирования

MediaInfo

Общее
Уникальный идентификатор : 253561057441749399808219941392451306968 (0xBEC21554D633B475915C0B043C7705D8)
Полное имя : N:\BD-DISC\Тинейджеры против нечто\Teenagers Battle the Thing 1958.x264.DVDRip.Rus.mkv
Формат : Matroska
Версия формата : Version 4
Размер файла : 1,37 Гбайт
Продолжительность : 1 ч. 0 м.
Общий поток : 3257 Кбит/сек
Название фильма : Тинейджеры против нечто / Подростки против нечто / Teenagers Battle the Thing / 1958 / rip from NTSC DVD5 by kosmoaelita (2019-11-19), crf=16.37
Дата кодирования : UTC 2019-11-19 16:54:23
Программа кодирования : mkvmerge v6.6.0 ('The Edge Of The In Between') built on Dec 1 2013 17:55:00
Библиотека кодирования : libebml v1.3.0 + libmatroska v1.4.1
Attachments : poster.jpg / VTS_01_1_001.mkv.encoding.log
Видео
Идентификатор : 1
Формат : AVC
Формат/Информация : Advanced Video Codec
Профиль формата : High@L4.1
Настройки формата : CABAC / 8 Ref Frames
Параметр CABAC формата : Да
Параметр RefFrames формата : 8 кадров
Идентификатор кодека : V_MPEG4/ISO/AVC
Продолжительность : 1 ч. 0 м.
Битрейт : 2838 Кбит/сек
Ширина : 720 пикселей
Высота : 540 пикселей
Соотношение сторон : 4:3
Режим частоты кадров : Постоянный
Частота кадров : 23,976 (24000/1001) кадра/сек
Цветовое пространство : YUV
Субдискретизация насыщенности : 4:2:0
Битовая глубина : 8 бит
Тип развёртки : Прогрессивная
Бит/(Пиксели*Кадры) : 0.304
Размер потока : 1,16 Гбайт (85%)
Заголовок : kosmoaelita
Библиотека кодирования : x264 core 130 r2273 b3065e6
Настройки программы : cabac=1 / ref=8 / deblock=1:-3:-3 / analyse=0x3:0x131 / me=umh / subme=11 / psy=1 / psy_rd=0.99:0.14 / mixed_ref=1 / me_range=24 / chroma_me=1 / trellis=2 / 8x8dct=1 / cqm=0 / deadzone=21,11 / fast_pskip=1 / chroma_qp_offset=-3 / threads=6 / lookahead_threads=1 / sliced_threads=0 / nr=0 / decimate=1 / interlaced=0 / bluray_compat=0 / constrained_intra=0 / bframes=8 / b_pyramid=2 / b_adapt=2 / b_bias=0 / direct=3 / weightb=1 / open_gop=0 / weightp=2 / keyint=210 / keyint_min=21 / scenecut=40 / intra_refresh=0 / rc_lookahead=80 / rc=2pass / mbtree=1 / bitrate=2838 / ratetol=1.0 / qcomp=0.65 / qpmin=0 / qpmax=69 / qpstep=4 / cplxblur=20.0 / qblur=0.5 / ip_ratio=1.25 / aq=1:0.90
Default : Да
Forced : Нет
Цветовой диапазон : Limited
Основные цвета : BT.601 NTSC
Характеристики трансфера : BT.601
Коэффициенты матрицы : BT.601
Аудио #1
Идентификатор : 2
Формат : AC-3
Формат/Информация : Audio Coding 3
Коммерческое название : Dolby Digital
Идентификатор кодека : A_AC3
Продолжительность : 1 ч. 0 м.
Вид битрейта : Постоянный
Битрейт : 192 Кбит/сек
Каналы : 2 канала
ChannelLayout : L R
Частота : 48,0 КГц
Частота кадров : 31,250 кадров/сек (1536 SPF)
Метод сжатия : С потерями
Размер потока : 82,4 Мбайт (6%)
Заголовок : Русский АО (Horror Maker)
Язык : Russian
ServiceKind/String : Complete Main
Default : Да
Forced : Нет
Аудио #2
Идентификатор : 3
Формат : AC-3
Формат/Информация : Audio Coding 3
Коммерческое название : Dolby Digital
Идентификатор кодека : A_AC3
Продолжительность : 1 ч. 0 м.
Вид битрейта : Постоянный
Битрейт : 224 Кбит/сек
Каналы : 2 канала
ChannelLayout : L R
Частота : 48,0 КГц
Частота кадров : 31,250 кадров/сек (1536 SPF)
Метод сжатия : С потерями
Размер потока : 96,2 Мбайт (7%)
Язык : English
ServiceKind/String : Complete Main
Default : Нет
Forced : Нет
Меню
00:02:56.242 : en:00:02:56.242
00:05:58.758 : en:00:05:58.758
00:11:28.922 : en:00:11:28.922
00:19:51.890 : en:00:19:51.890
00:22:28.781 : en:00:22:28.781
00:28:35.481 : en:00:28:35.481
00:31:38.130 : en:00:31:38.130
00:37:25.510 : en:00:37:25.510
00:43:22.700 : en:00:43:22.700
00:48:52.697 : en:00:48:52.697
00:54:35.506 : en:00:54:35.506
00:57:14.264 : en:00:57:14.264

Скриншоты














Скринлист

cd Рип дополнительно залит на ОБЛАКО cd2


Last edited by admin on 2016-02-06 08:05; edited 3 times in total
[Profile] [PM]
Display posts:    
Reply to topic

Current time is: 03-Apr 01:36

All times are UTC + 3



You cannot post new topics in this forum
You cannot reply to topics in this forum
You cannot edit your posts in this forum
You cannot delete your posts in this forum
You cannot vote in polls in this forum
You cannot attach files in this forum
You cannot download files in this forum