Заказ / Order Up (Сет Уорли) [2012, фантастика, короткометражка, WEB-DL-720p] (СТ: Laman)

Reply to topic
 
Author Message

Faer ®

Gender: Male

Longevity: 7 years 4 months

Posts: 870

Post 03-Nov-2013 20:30

[Quote]

Заказ / Order Up
Страна: США
Жанр: фантастика, короткометражка
Год выпуска: 2012
Продолжительность: 00:03:08
Cубтитры: русские
Режиссер: Сет Уорли
В ролях: Миха Ланьер
Описание: Пицца доставляется в жуткое, заброшенное место. Затем начинаются странности.

Качество видео: WEB-DL-720p
Формат видео: MKV
Видео: AVC, 1280x720, 16:9, 23.976fps, 1679 Кбит/с
Аудио: AC3, 44,1 КГц, 128 Кбит/с, стерео
Формат субтитров: softsub (SRT)

MediaInfo

Общее
Уникальный идентификатор : 121420451992313711816095345822787865616 (0x5B58BA7ABC6B8BB1E47AE2EBC0368C10)
Полное имя : C:\Users\Ysera\Desktop\Order Up.mkv
Формат : Matroska
Версия формата : Version 4
Размер файла : 40,6 Мбайт
Продолжительность : 3 м. 8 с.
Общий поток : 1 809 Кбит/сек
Дата кодирования : UTC 2021-11-30 19:15:56
Программа кодирования : mkvmerge v46.0.0 ('No Deeper Escape') 64-bit
Библиотека кодирования : libebml v1.3.10 + libmatroska v1.5.2
Видео
Идентификатор : 1
Формат : AVC
Формат/Информация : Advanced Video Codec
Профиль формата : Main@L3.1
Настройки формата : CABAC / 3 Ref Frames
Параметр CABAC формата : Да
Параметр RefFrames формата : 3 кадра
Идентификатор кодека : V_MPEG4/ISO/AVC
Продолжительность : 3 м. 8 с.
Битрейт : 1 679 Кбит/сек
Ширина : 1 280 пикселей
Высота : 720 пикселей
Соотношение сторон : 16:9
Режим частоты кадров : Постоянный
Частота кадров : 23,976 (24000/1001) кадра/сек
Цветовое пространство : YUV
Субдискретизация насыщенности : 4:2:0
Битовая глубина : 8 бит
Тип развёртки : Прогрессивная
Бит/(Пиксели*Кадры) : 0.076
Размер потока : 37,7 Мбайт (93%)
Default : Да
Forced : Нет
Цветовой диапазон : Limited
Основные цвета : BT.709
Характеристики трансфера : BT.709
Коэффициенты матрицы : BT.709
Аудио
Идентификатор : 2
Формат : AAC LC
Формат/Информация : Advanced Audio Codec Low Complexity
Идентификатор кодека : A_AAC-2
Продолжительность : 3 м. 8 с.
Битрейт : 128 Кбит/сек
Каналы : 2 канала
Channel layout : L R
Частота : 44,1 КГц
Частота кадров : 43,066 кадра/сек (1024 SPF)
Метод сжатия : С потерями
Размер потока : 2,87 Мбайт (7%)
Язык : English
Default : Да
Forced : Нет
Текст
Идентификатор : 3
Формат : UTF-8
Идентификатор кодека : S_TEXT/UTF8
Идентификатор кодека/Информация : UTF-8 Plain Text
Продолжительность : 2 м. 8 с.
Битрейт : 10 бит/сек
Count of elements : 6
Размер потока : 165 байт (0%)
Default : Да
Forced : Нет

Скриншоты




[Profile] [PM]

bot

Post 30-Nov-2021 22:26 (after 8 years)

Топик был перенесен из форума Фант. фильмы без перевода в форум Короткометражки
Faer
 

Faer ®

Gender: Male

Longevity: 7 years 4 months

Posts: 870

Post 30-Nov-2021 22:27 (after 8 years)

[Quote]

Раздача обновлена. Добавлен русский субтитровый перевод.
[Profile] [PM]
Display posts:    
Reply to topic

Current time is: 28-May 04:28

All times are UTC + 3



You cannot post new topics in this forum
You cannot reply to topics in this forum
You cannot edit your posts in this forum
You cannot delete your posts in this forum
You cannot vote in polls in this forum
You cannot attach files in this forum
You cannot download files in this forum