Вилли Тоблер и гибель 6-го флота / Willi Tobler und der Untergang der 6. Flotte (Willi Tobler and the Decline of the 6th Fleet) / 1972 / ЛО (den904), СТ / DVDRip

Reply to topic
 
Author Message

admin ®

Gender: Male

Longevity: 7 years

Posts: 4725

Location: Україна

Post 07-Sep-2012 04:44

[Quote]

Вилли Тоблер и гибель 6-го флота / Willi Tobler und der Untergang der 6. Flotte (Willi Tobler and the Decline of the 6th Fleet)
Год выпуска: 1972
Продолжительность: 01:17:19
Жанр: Фантастика, арт-хауз
Выпущено: Германия (ФРГ), Kairos-Film
Перевод: ЛО den904 по субтитрам из немецкого ДВД
Режиссер: Александр Клюге
В ролях: Альфред Эдель, Харк Бом, Курд Юргенс, Наталия Боваков, Хоаким Хирш, Ханнелор Хогер, Хорст Захтлебен
О фильме: Вилли пытается выжить в мире, где бушуют всё уничтожающие аннигилистические галактические сражения. Он устраивается на работу во властные структуры Центра.Но он не подозревает, что тем самым выбирает не ту сторону в гражданской войне...
Качество: DVDRip
Видео: х264, 2179 Кбит/с, 720x544, crf=21.5
Аудио 1: Русский ЛО (den904) (AC3, 2 ch, 224 Кбит/с)
Аудио 2: Немецкий (AC3, 2 ch, 224 Кбит/с)
Субтитры: Русские, английские, испанские, французские, китайские
Работа над релизом:
Рип с немецкого ДВД9 от Музея Кино - sasha20072007, качество crf=21.5
Лог кодирования в контейнере
Русские субтитры на фильм и допы изначально присутствовали на немецком издании
Русская озвучка по заказу kosmoaelita - den904
Спонсор русской озвучки - Андрей Берг



Пример русской озвучки:

Дополнительно

Для Украины: рип и оригин. ДВД дополнительно залит в файлохранилище
Фильмы Александра Клюге - это своеобразные рентгеновские снимки немецкой истории и менталитета. Особенности фильмов Клюге - их личностность и остроумие - обнажают дисгармонию мира, противоречивость между человеческим мышлением и поведением. Это придает им особую жизненность, элегантность, легкость и искрометность.
Александр Клюге, юрист по образованию, начал свою кинематографическую деятельность в конце 50-х годов в качестве ассистента Фрица Ланга, которому его рекомендовал известный немецкий философ Теодор Адорно. В своей рекомендации он назвал Клюге «поистине самым одаренным из молодого поколения, кого только можно встретить в Германии, удивительной зрелости и широты интересов». В 1960 году А. Клюге снимает свой первый короткометражный фильм «Жестокость в камне» и становится одним из основателей немецкого авторского кино. Основным принципом его работы является недопущение разделения труда между автором, режиссером и производителем кино.
Александр Клюге внёс неоценимый вклад в развитие движения "Нового немецкого кино"- один из авторов и идеологов Оберхаузенского манифеста (1962). Будучи одним из инициаторов Оберхаузенского манифеста, Александр Клюге выступал за кинематограф, обнажающий реалии повседневной жизни в Германии. В 1966 году выходит первый полнометражный фильм режиссера «Прощание с прошлым», в основе которого лежит реальная история из адвокатской практики А.Клюге. Фильм по достоинству был оценен международной кинокритикой, получив «Серебряного Льва» на Венецианском кинофестивале. В последующие годы фильмы режиссера неоднократно награждались кинематографическими премиями различных международных кинофестивалей. Он писал сценарии и книги, ставил экспериментальные фильмы, занимался политикой и социологией, делал телевизионные программы. В своём творчестве Александр Клюге сумел создать летопись последних десятилетий, как никто из его современников. В 1982 году Венецианский кинофестиваль вручил Клюге премию за вклад в киноискусство, в связи с пятидесятилетием режиссера. Александр Клюге является одним из основателей и первым руководителем Института киноискусства в Ульме. Среди его учеников такие известные кинорежиссеры немецкого кино, как Райнер Вернер Фасбиндер и Вим Вендерс.
В 2001 году немецкий музей кино выпустил на DVD коллекцию фильмов Александра Клюге в 8 томах. В каждом томе по два DVD. Общая продолжительность коллекции 2053 минуты, в ней собрано более 50 фильмов Клюге. На каждом диске кроме основного фильма есть еще короткометражные фильмы, как художественные, так и документальные.

MediaInfo

Общее
Уникальный идентификатор : 237147044938185194619762513845596550166 (0xB268DC08A594690AB64ED65A54257416)
Полное имя : F:\Willi Tobler und der Untergang der 6. Flotte 1972.x264.DVDRip.Rus.kosmoaelita.mkv
Формат : Matroska
Версия формата : Version 4 / Version 2
Размер файла : 1,44 Гбайт
Продолжительность : 1 ч. 17 м.
Общий поток : 2667 Кбит/сек
Название фильма : Вилли Тоблер и гибель 6-го флота / Willi Tobler und der Untergang der 6. Flotte / 1972 / Релиз kosmoaelita
Дата кодирования : UTC 2015-11-19 10:20:53
Программа кодирования : mkvmerge v6.6.0 ('The Edge Of The In Between') built on Dec 1 2013 17:55:00
Библиотека кодирования : libebml v1.3.0 + libmatroska v1.4.1
Attachements : WILLI_TOBLER_T01ллллллллл.mkv.encoding.log / LERNPROZESSE.PDF / LEARNING.PDF / v10514iu6t3.jpg / cover.jpg
Видео
Идентификатор : 1
Формат : AVC
Формат/Информация : Advanced Video Codec
Профиль формата : High@L4.1
Параметр CABAC формата : Да
Параметр ReFrames формата : 8 кадров
Идентификатор кодека : V_MPEG4/ISO/AVC
Продолжительность : 1 ч. 17 м.
Битрейт : 2166 Кбит/сек
Ширина : 720 пикселей
Высота : 544 пикселя
Соотношение сторон : 4:3
Режим частоты кадров : Постоянный
Частота кадров : 25,000 кадров/сек
Цветовое пространство : YUV
Субдискретизация насыщенности : 4:2:0
Битовая глубина : 8 бит
Тип развёртки : Прогрессивная
Бит/(Пиксели*Кадры) : 0.221
Размер потока : 1,17 Гбайт (81%)
Заголовок : kosmoaelita
Библиотека кодирования : x264 core 124 r2197 69a0443
Настройки программы : cabac=1 / ref=8 / deblock=1:-2:-1 / analyse=0x3:0x133 / me=umh / subme=11 / psy=1 / psy_rd=1.00:0.21 / mixed_ref=1 / me_range=24 / chroma_me=1 / trellis=2 / 8x8dct=1 / cqm=0 / deadzone=6,6 / fast_pskip=1 / chroma_qp_offset=-3 / threads=6 / sliced_threads=0 / nr=0 / decimate=0 / interlaced=0 / bluray_compat=0 / constrained_intra=0 / bframes=12 / b_pyramid=2 / b_adapt=2 / b_bias=0 / direct=1 / weightb=1 / open_gop=0 / weightp=2 / keyint=220 / keyint_min=22 / scenecut=40 / intra_refresh=0 / rc_lookahead=60 / rc=crf / mbtree=1 / crf=21.5 / qcomp=0.80 / qpmin=0 / qpmax=69 / qpstep=4 / vbv_maxrate=17500 / vbv_bufsize=14000 / crf_max=0.0 / nal_hrd=none / ip_ratio=1.20 / aq=1:0.80
Язык : German
Default : Да
Forced : Нет
Основные цвета : BT.601 NTSC
Характеристики трансфера : BT.601
Коэффициенты матрицы : BT.601
colour_range : Limited
Аудио #1
Идентификатор : 2
Формат : AC-3
Формат/Информация : Audio Coding 3
Расширение режима : CM (complete main)
Параметр Endianness формата : Big
Идентификатор кодека : A_AC3
Продолжительность : 1 ч. 17 м.
Вид битрейта : Постоянный
Битрейт : 224 Кбит/сек
Каналы : 2 канала
Расположение каналов : Front: L R
Частота : 48,0 КГц
Битовая глубина : 16 бит
Метод сжатия : С потерями
Размер потока : 124 Мбайт (8%)
Язык : German
Default : Нет
Forced : Нет
Аудио #2
Идентификатор : 10
Формат : AC-3
Формат/Информация : Audio Coding 3
Расширение режима : CM (complete main)
Параметр Endianness формата : Big
Идентификатор кодека : A_AC3
Продолжительность : 1 ч. 17 м.
Вид битрейта : Постоянный
Битрейт : 224 Кбит/сек
Каналы : 2 канала
Расположение каналов : Front: L R
Частота : 48,0 КГц
Битовая глубина : 16 бит
Метод сжатия : С потерями
Размер потока : 124 Мбайт (8%)
Заголовок : Русский ЛО (den904 для kosmoaelita.com) - поддержка А.Берг
Язык : Russian
Default : Да
Forced : Нет
Текст #1
Идентификатор : 3
Формат : VobSub
Режим смешивания : zlib
Идентификатор кодека : S_VOBSUB
Идентификатор кодека/Информация : The same subtitle format used on DVDs
Язык : Russian
Default : Да
Forced : Да
Текст #2
Идентификатор : 4
Формат : UTF-8
Идентификатор кодека : S_TEXT/UTF8
Идентификатор кодека/Информация : UTF-8 Plain Text
Заголовок : srt
Язык : Russian
Default : Нет
Forced : Нет
Текст #3
Идентификатор : 5
Формат : VobSub
Режим смешивания : zlib
Идентификатор кодека : S_VOBSUB
Идентификатор кодека/Информация : The same subtitle format used on DVDs
Язык : English
Default : Нет
Forced : Нет
Текст #4
Идентификатор : 6
Формат : UTF-8
Идентификатор кодека : S_TEXT/UTF8
Идентификатор кодека/Информация : UTF-8 Plain Text
Заголовок : srt
Язык : English
Default : Нет
Forced : Нет
Текст #5
Идентификатор : 7
Формат : VobSub
Режим смешивания : zlib
Идентификатор кодека : S_VOBSUB
Идентификатор кодека/Информация : The same subtitle format used on DVDs
Язык : Spanish
Default : Нет
Forced : Нет
Текст #6
Идентификатор : 8
Формат : VobSub
Режим смешивания : zlib
Идентификатор кодека : S_VOBSUB
Идентификатор кодека/Информация : The same subtitle format used on DVDs
Язык : French
Default : Нет
Forced : Нет
Текст #7
Идентификатор : 9
Формат : VobSub
Режим смешивания : zlib
Идентификатор кодека : S_VOBSUB
Идентификатор кодека/Информация : The same subtitle format used on DVDs
Язык : Chinese
Default : Нет
Forced : Нет
Меню
00:00:00.000 : en:01
00:05:00.233 : en:02
00:10:00.466 : en:03
00:15:10.933 : en:04
00:20:00.833 : en:05
00:25:00.333 : en:06
00:30:00.599 : en:07
00:35:00.266 : en:08
00:40:00.599 : en:09
00:45:00.000 : en:10
00:50:00.233 : en:11
00:55:00.466 : en:12
01:00:10.933 : en:13
01:10:00.833 : en:14
01:15:00.333 : en:15
01:20:00.599 : en:16
01:25:00.266 : en:17

YouTube


Доп.1 к ДВД

Доп.2 к ДВД - Близок день, когда Земли больше не будет 1997
http://www.youtube.com/watch?v=kuEHoq0-Eow&feature

Скриншоты



Скринлист

cd Рип дополнительно залит на ОБЛАКО cd2


Last edited by admin on 2015-11-19 14:04; edited 6 times in total
[Profile] [PM]

admin ®

Gender: Male

Longevity: 7 years

Posts: 4725

Location: Україна

Post 19-Nov-2015 13:26 (after 3 years 2 months)

[Quote]

Добавлена русская озвучка от den904
[Profile] [PM]
Display posts:    
Reply to topic

Current time is: 22-Sep 09:34

All times are UTC + 3



You cannot post new topics in this forum
You cannot reply to topics in this forum
You cannot edit your posts in this forum
You cannot delete your posts in this forum
You cannot vote in polls in this forum
You cannot attach files in this forum
You cannot download files in this forum