Могучий Пекинец / Кинг Конг в Гонконге / The Mighty Peking Man / Xing xing wang / 猩猩王 (Менг Хуа Хо / Meng Hua Ho) [1977 г., ужасы, фантастика, BDRip-720p] ЛД (Shangu & Ravenlark)

Reply to topic
 
Author Message

admin ®

Gender: Male

Longevity: 7 years 9 months

Posts: 4799

Post 23-Oct-2013 21:57

[Quote]

Могучий Пекинец / Кинг Конг в Гонконге / The Mighty Peking Man / Xing xing wang / 猩猩王
Год выпуска: 1977
Страна: Гонконг, Shaw Brothers
Жанр: ужасы, фантастика
Продолжительность: 01:29:42
Перевод: Любительский (двухголосый) Shangu & Ravenlark
Режиссер: Менг Хуа Хо / Meng Hua Ho
В ролях:
Evelyne Kraft ... Ah Wei
Danny Lee ... Johnnie Fang (as Li Hsiu-Hsien)
Feng Ku ... Lu Tiem
Wei Tu Lin ... Chen Shi-yu
Norman Chu ... Ah Lung (as Shao-Chiang Hsu)
Hang-Sheng Wu ... Ah Pi
Theodore Thomas ... (as Ted Thomas)
Steve Nicholson
Yao Hsiao ... Huang Tsui-hua
Ping Chen ... Lucy
Описание: Гонконгская вариация на тему "Кинг-Конга".
От землетрясения пробуждается гигантская обезьяна и сокрушает какую-то деревню, после чего куда-то убегает. В джунгли Индии снаряжается экспедиция, которая помимо гигантской гориллы находит там и дикую белокожую блондинку, воспитанную этой самой гориллой. Обоих увозят в Гонконг, где злобный бизнесмен пытается эксплуатировать гориллу. Однако, той это не совсем по нраву. Да и блондинка чувствует себя неуместной в мегаполисе

Качество: BDRip-720p
Формат: MKV
Видео: x264, 5145 кбит/с, 1280x542, 23.976 к/с
Аудио 1: Русский (AC3, 2 ch, 192 Кбит/с)
Аудио 2: Китайский (AC3, 2 ch, 448 Кбит/с)
Работа над релизом:
Рип найден в сети.
Синхронизация русской дорожки - sasha20072007 (kosmoaelita)
Перевод субтитров: Артём Т.
Перевод: Двухголосый закадровый Shangu & Ravenlark
Сравнение: DVDRip vs. BDRip-720p
Сравнение: DVDRip vs. BDRip-720p




Пример русской озвучки

Дополнительно

слоган «Action...Excitement...Spectacle beyond your wildest dreams!»
бюджет HKD 6 000 000
Also Known As (AKA)
Denmark Den afskyelige snemand
Finland (TV title) King Kong Hongkongissa
Finland (DVD title) The Mighty Peking Man
France Le colosse de Hong Kong
Greece (reissue title) Gorilanthropos, o atsalenios gigas
Greece (transliterated ISO-LATIN-1 title) Gorilanthropos, o tromos tis Gis
Hong Kong (Cantonese title) Sing sing wong
Hong Kong (English title) The Mighty Peking Man
Italy Il gigante dell'Himalaya
Italy L'uomo di Pechino
Japan Pekin-genjin no gyakushu
Netherlands Het Monster van Peking
Portugal O Colosso de Pequim
USA Goliathon
USA (reissue title) Mighty Peking Man
USA (DVD title) The Mighty Peking Man
Europe (English title) Colossus of Congo
West Germany Der Koloß von Konga
World-wide (English title) The Mighty Peking Man
===============================================
Для Украины: рип дополнительно залит в файлохранилище
Для удаления,добавления и извлечения дорожек в mkv используйте бесплатную портативную mkvmerge GUI 6.2.0
Для присоединения потом дорожек к avi воспользуйтесь VirtualDubMod

Отзывы

о боги! это ж фильм моего детства! мы его "азиатский кинг-конг" называли и смотрели по видаку без перевода Супер!!!
-------------------------------------
блондинка воспитанная гориллой - это нечто. китайский "асилум" какойто
-------------------------------------------------------------------
Спасибо за редкий фильм.Признаться,не знал что есть еще и китайский Кинг-Конг.Японского смотрел,а вот про этого не слышал.Хотя с таким названием,да еще и от SB и не догадаешься,на ум приходит какой-нибудь боевик с единоборствами,а не фантастика.А вообще,странно конечно,что SB решила выпустить такой фильм,всего лишь через год после американского ремейка 1976 года.Видимо кассовый и мировой успех того фильма не давал покоя студийным боссам SB и им приспичило заиметь срочно свою гигантскую обезьяну.Тут еще из названия вспоминается Могучий Джо Янг.Сравнивать конечно эти фильмы дело неблагодарное,потому-как американский Кинг-Конг 1976г. выигрывает по всем параметрам.И дело тут,конечно же в самой обезьяне.В американском фильме спецэффектыбыли удостоены Оскара и за них отвечал Рик Бейкер.Гений этой индустрии,который сам одевался в костюм Кинг-Конга,изучив при этом поведение горилл.А вот китайская обезьяна мало на них похожа,а больше на волосатого снежного человека Йети.И передвигается она как неуклюжий японский Годзилла.И все-таки ждешь от Шоу Бразерс,что он в финале вот-вот подпрыгнет и в прыжке с разворота сшибет вертолет.Также стоит отметить не очень натурально изготовленные миниатюрные модели техники и макеты города.Про макияж блондинки из джунглей выглядящей как с обложки журнала,уже было подмечено.Но вот если сравнивать Могучего пекинца с похожими японскими фильмами того периода про Годзиллу,то он выглядит не плохо.И это учитывая то,что японцы на Годзилле с 1950-х годов собаку сьели.Так что кто интересуется подобными фильмами,посмотреть Пекинца можно,хотя бы как экзотический клон Кинг-Конга.

MediaInfo

Общее
Уникальный идентификатор : 245384410563691096451091516838142778845 (0xB89B5183E90DA2DBB732289E00A39DDD)
Полное имя : N:\The Mighty Peking Man 1977.x264.BDRip.720p.kosmoaelita.mkv
Формат : Matroska
Версия формата : Version 4 / Version 2
Размер файла : 3,63 Гбайт
Продолжительность : 1 ч. 29 м.
Общий поток : 5787 Кбит/сек
Название фильма : Могучий Пекинец / Кинг Конг в Гонконге / The Mighty Peking Man / Xing xing wang / 猩猩王 / 1977
Дата кодирования : UTC 2013-10-23 16:15:17
Программа кодирования : mkvmerge v6.4.1 ('Omega Point') built on Sep 16 2013 22:05:10
Библиотека кодирования : libebml v1.3.0 + libmatroska v1.4.1
Видео
Идентификатор : 1
Формат : AVC
Формат/Информация : Advanced Video Codec
Профиль формата : High@L4.1
Параметр CABAC формата : Да
Параметр ReFrames формата : 12 кадров
Идентификатор кодека : V_MPEG4/ISO/AVC
Продолжительность : 1 ч. 29 м.
Битрейт : 5145 Кбит/сек
Ширина : 1280 пикселей
Высота : 542 пикселя
Соотношение сторон : 2,35:1
Режим частоты кадров : Постоянный
Частота кадров : 23,976 кадра/сек
Цветовое пространство : YUV
Субдискретизация насыщенности : 4:2:0
Битовая глубина : 8 бит
Тип развёртки : Прогрессивная
Бит/(Пиксели*Кадры) : 0.309
Размер потока : 3,15 Гбайт (87%)
Библиотека кодирования : x264 core 138 r2358 9e941d1
Настройки программы : cabac=1 / ref=12 / deblock=1:-3:-3 / analyse=0x3:0x113 / me=umh / subme=10 / psy=1 / psy_rd=1.10:0.15 / mixed_ref=1 / me_range=32 / chroma_me=1 / trellis=2 / 8x8dct=1 / cqm=0 / deadzone=21,11 / fast_pskip=0 / chroma_qp_offset=-2 / threads=18 / lookahead_threads=1 / sliced_threads=0 / nr=0 / decimate=1 / interlaced=0 / bluray_compat=0 / constrained_intra=0 / bframes=6 / b_pyramid=2 / b_adapt=2 / b_bias=0 / direct=3 / weightb=1 / open_gop=0 / weightp=2 / keyint=250 / keyint_min=23 / scenecut=40 / intra_refresh=0 / rc_lookahead=40 / rc=2pass / mbtree=0 / bitrate=5145 / ratetol=1.0 / qcomp=0.60 / qpmin=0 / qpmax=69 / qpstep=4 / cplxblur=20.0 / qblur=0.5 / vbv_maxrate=40000 / vbv_bufsize=30000 / nal_hrd=none / ip_ratio=1.40 / pb_ratio=1.30 / aq=1:0.80
Язык : English
Default : Да
Forced : Нет
Аудио #1
Идентификатор : 2
Формат : AC-3
Формат/Информация : Audio Coding 3
Расширение режима : CM (complete main)
Параметр Endianness формата : Big
Идентификатор кодека : A_AC3
Продолжительность : 1 ч. 29 м.
Вид битрейта : Постоянный
Битрейт : 192 Кбит/сек
Каналы : 2 канала
Расположение каналов : Front: L R
Частота : 48,0 КГц
Битовая глубина : 16 бит
Метод сжатия : С потерями
Размер потока : 123 Мбайт (3%)
Заголовок : Русский ЛД (Shangu & Ravenlark) AC3 2. 192
Язык : Russian
Default : Да
Forced : Нет
Аудио #2
Идентификатор : 3
Формат : AC-3
Формат/Информация : Audio Coding 3
Расширение режима : CM (complete main)
Параметр Endianness формата : Big
Идентификатор кодека : A_AC3
Продолжительность : 1 ч. 29 м.
Вид битрейта : Постоянный
Битрейт : 448 Кбит/сек
Каналы : 2 канала
Расположение каналов : Front: L R
Частота : 48,0 КГц
Битовая глубина : 16 бит
Метод сжатия : С потерями
Размер потока : 287 Мбайт (8%)
Язык : Chinese
Default : Нет
Forced : Нет

Скриншоты












cd Рип дополнительно залит на mail.ru cd2


Last edited by admin on 2013-10-23 22:49; edited 1 time in total
[Profile] [PM]

admin ®

Gender: Male

Longevity: 7 years 9 months

Posts: 4799

Post 23-Oct-2013 22:47 (after 49 minutes)

[Quote]

Сравнение: DVDRip vs. BDRip-720p
Сравнение: DVDRip vs. BDRip-720p
На BD выпущена совершенно перемонтированная версия, отличная от DVD
[Profile] [PM]
Display posts:    
Reply to topic

Current time is: 04-Jun 21:06

All times are UTC + 3



You cannot post new topics in this forum
You cannot reply to topics in this forum
You cannot edit your posts in this forum
You cannot delete your posts in this forum
You cannot vote in polls in this forum
You cannot attach files in this forum
You cannot download files in this forum