Раш / Rush (Тонино Риччи / Tonino Ricci) [1983 г., Постапокалипсис, боевик, DVDRip] ЛО (Александр Райдер), СТ (Eazin)

Reply to topic
DL-List and Torrent activity
Size:  1.37 GB   |    Registered:  7 years 1 month   |    Completed:  1 time

Seeder not seen: 7 years

 
   
 
 
 
Author Message

AlexNT60 ®

Gender: Male

Longevity: 7 years 9 months

Posts: 137

Location: СПб

Post 12-Oct-2013 23:41

[Quote]

Раш / Rush
Год выпуска: 1983
Страна: Италия
Жанр: ПА
Продолжительность: 01:16:32
Перевод: Любительский одноголосый Александр Райдер
Режиссер: Тонино Риччи / Tonino Ricci
В ролях: Конрад Найчолс / Conrad Nichols, Гордон Митчелл / Gordon Mitchell, Лаура Троттер / Laura Trotter, Рита Фурлан / Rita Furlan, Бриджит Пелз / Bridgit Pelz и др.
Описание: В пост-ядерном мире злодеи Йор(мозг всей шайки) и Итаки(злобный профессор) используют рабский труд на плантациях, снимая верхний слой зараженного грунта и выращивая... ммм... растения. Они знают, что воздух на планете уже очистился и земля почти вернула себе плодородность, но скрывают сей факт от общественности, ибо тогда они рискуют потерять свою власть. Но однажды приходит герой, способный подхватить упавшее знамя демократии, и силовыми методами отстранить от власти гнусных диктаторов. Его имя - РАШ! Или если по-русски - стремительный бросок!
Качество: DVDRip
Формат: AVI
Видео кодек: XviD
Аудио кодек: AC3
Видео: 640 x 368 (16:9), 25.000 fps, 1 985 Kbps
Аудио: Русский 48000 Hz, 192 Kbps, 2 ch.
Аудио: Английский 48000 Hz, 192 Kbps, 2 ch.
Субтитры: Отдельным файлом во вложении
Работа над релизом:
Рип с немецкого ДВД5 -AlexNT60
ДВД предоставлен - Holmes
Перевод фильма на русский язык - Eazin
Озвучивание - Александр Райдер (Rider)
Сведение русской дорожки: AlexNT60



Дополнительно

слоган «A one man army to save the world!»
Also Known As (AKA)
Australia (video title) Blood Rush
Germany (TV title) Rush ein Mann wie ein Erdbeben
France Rage
Greece (transliterated ISO-LATIN-1 title) Rush: Orgismenos gigas
Portugal Rush - O Homem Furacão
USA Rush: The Assassin
===============================================
Для Украины: рип и оригинальный ДВД дополнительно залиты в файлохранилище
Для удаления,добавления и извлечения дорожек в mkv используйте бесплатную портативную mkvmerge GUI 6.2.0
Для присоединения потом дорожек к avi воспользуйтесь VirtualDubMod

Знаете ли вы, что...

Отзывы

Скрытый Смысл 16-Сен-11 17:16
Спасибо! Посмотрел фильм.
Рекомендую поклонникам жанра. Фильм только подтверждает стихотворение Владимира Маурина:
Добро - оно должно быть с кулаками,
С наколкой синей на запястье "ВАРЯ",
И быть должна давно небритой харя,
И пиво пить должно Добро с дружками!
А Зло - оно должно быть с синяками,
Должно реветь при каждом при ударе,
Беспомощно в пыли руками шаря...
А глазки злые за разбитыми очками!
Борьба Добра и Зла идет давным-давно!
И зачастую трудно разобраться,
К кому припасть, куда пойти-податься?
Зло выбрать иль Добро? И с кем же заодно
Жить и любить, бороться и смеяться?
Непросто это всё. Вот то-то и оно...
--------------------------------------------------------
4.7Gb 18-Янв-12 17:16
Пародия на легендарный культовый фильм "Рэмбо".
------------------------------------------------------
cypher25 27-Авг-12 12:08
Спасибо =Rider= за релиз и озвучку! Итальянский постапокалиптический трэш под названием "Раш". На постере нарисованы вертолеты, взорванные военные джипы и вышки, наверное такое кино мечтал снять режиссёр, но на деле всё вышло уж более чем скромно, бюджет ну совсем крохотный. Гордон Митчел здесь в черном парике, как мне показалось, чем-то похож на Юргена Прохнова.

Рецензия

MediaInfo

Общее
Полное имя : N:\Rush.avi
Формат : AVI
Формат/Информация : Audio Video Interleave
Размер файла : 1,37 Гбайт
Продолжительность : 1 ч. 16 м.
Общий поток : 2556 Кбит/сек
Программа кодирования : VirtualDubMod 1.5.4.1 (build 2178/release)
Библиотека кодирования : VirtualDubMod build 2178/release
Видео
Идентификатор : 0
Формат : MPEG-4 Visual
Профиль формата : Advanced Simple@L5
Параметр BVOP формата : 1
Параметр QPel формата : Нет
Параметр GMC формата : Без точки перехода
Параметр матрицы формата : Выборочная
Идентификатор кодека : XVID
Идентификатор кодека/Подсказка : XviD
Продолжительность : 1 ч. 16 м.
Битрейт : 2163 Кбит/сек
Ширина : 640 пикселей
Высота : 368 пикселей
Соотношение сторон : 1,739
Частота кадров : 25,000 кадров/сек
Цветовое пространство : YUV
Субдискретизация насыщенности : 4:2:0
Битовая глубина : 8 бит
Тип развёртки : Прогрессивная
Метод сжатия : С потерями
Бит/(Пиксели*Кадры) : 0.367
Размер потока : 1,16 Гбайт (85%)
Библиотека кодирования : XviD 1.2.1 (UTC 2008-12-04)
Аудио #1
Идентификатор : 1
Формат : AC-3
Формат/Информация : Audio Coding 3
Расширение режима : CM (complete main)
Параметр Endianness формата : Big
Идентификатор кодека : 2000
Продолжительность : 1 ч. 16 м.
Вид битрейта : Постоянный
Битрейт : 192 Кбит/сек
Каналы : 2 канала
Расположение каналов : Front: L R
Частота : 48,0 КГц
Битовая глубина : 16 бит
Метод сжатия : С потерями
Размер потока : 105 Мбайт (8%)
Выравнивание : Разделение по промежуткам
Продолжительность промежутка : 96 мс. (2,40 видеокадра)
Время предзагрузки промежутка : 96 мс.
Язык : Russian
Аудио #2
Идентификатор : 2
Формат : AC-3
Формат/Информация : Audio Coding 3
Расширение режима : CM (complete main)
Параметр Endianness формата : Big
Идентификатор кодека : 2000
Продолжительность : 1 ч. 16 м.
Вид битрейта : Постоянный
Битрейт : 192 Кбит/сек
Каналы : 2 канала
Расположение каналов : Front: L R
Частота : 48,0 КГц
Битовая глубина : 16 бит
Метод сжатия : С потерями
Размер потока : 105 Мбайт (8%)
Выравнивание : Разделение по промежуткам
Продолжительность промежутка : 96 мс. (2,40 видеокадра)
Время предзагрузки промежутка : 96 мс.
Язык : English

Субтитры

2
00:00:08,560 --> 00:00:11,520
Конрад Найчолс
в фильме...
3
00:00:12,900 --> 00:00:17,800
"РАШ"
4
00:00:19,080 --> 00:00:22,080
Засверкали молнии и запылали небеса
5
00:00:22,480 --> 00:00:25,920
и послышались миллионы людских криков,
полных боли и страдания.
6
00:00:26,970 --> 00:00:29,240
Послышались громкие раскаты грома
7
00:00:29,720 --> 00:00:33,040
и огромные тектанические плиты
планеты пришли в движение...
--------------------------
412
01:11:57,640 --> 01:11:58,800
Ублюдок!
413
01:12:06,160 --> 01:12:08,880
Ну где ты, проклятый сукин сын!?
414
01:14:35,722 --> 01:14:45,841
Перевод на русский: Eazin
415
01:14:59,000 --> 01:15:04,990
КОНЕЦ

Скриншоты





Attachments

Русские субтитры

Rush.avi.torrent
 GOLD TORRENT! DOWNLOAD TRAFFIC DOES NOT CONSIDER! 
Torrent: Registered [ 2013-10-12 23:42 ]

Download .torrent

Download

14 KB

Status: checked
Completed: 1 times
Size: 1.37 GB
 


Last edited by AlexNT60 on 2013-10-13 18:26; edited 1 time in total
[Profile] [PM]

admin

Gender: Male

Longevity: 8 years 2 months

Posts: 4796

Post 13-Oct-2013 01:28 (after 1 hour 47 minutes)

[Quote]

Насколько я понял рипы делались с одного исходника и отличаются лишь размером?
http://kosmoaelita.com/viewtopic.php?t=935
http://screenshotcomparison.com/comparison/44443
Меньший по размеру можно удалять?
[Profile] [PM]

AlexNT60 ®

Gender: Male

Longevity: 7 years 9 months

Posts: 137

Location: СПб

Post 13-Oct-2013 12:41 (after 11 hours)

[Quote]

admin
Да.
Чет я совсем "плохой" стал. Забыл, что уже раздавал его... Лечиться надо...
[Profile] [PM]

pompilius

Gender: Male

Longevity: 3 years 1 month

Posts: 388

Post 13-Nov-2019 07:33 (after 6 years)

[Quote]

Скачать бы...
Нашёл в вконтакте, но качество у.г. ((
[Profile] [PM]
Display posts:    
Reply to topic

Current time is: 01-Dec 05:34

All times are UTC + 3



You cannot post new topics in this forum
You cannot reply to topics in this forum
You cannot edit your posts in this forum
You cannot delete your posts in this forum
You cannot vote in polls in this forum
You cannot attach files in this forum
You can download files in this forum