Популяция: 2 / Population: 2 (Гил Луна / Gil Luna) [2012 г., Фантастика, драма, WEBDL-1080p] ПД (НТВ+)

Reply to topic
 
Author Message

admin ®

Gender: Male

Longevity: 6 years 8 months

Posts: 4725

Location: Україна

Post 12-Oct-2013 12:32

[Quote]

Популяция: 2 / Population: 2
Год выпуска: 2012
Страна: США, Moon Tribe Studios
Жанр: Фантастика, драма
Продолжительность: 01:26:16
Перевод: Профессиональный (двухголосый) НТВ+,
Режиссер: Гил Луна / Gil Luna
В ролях: Suzanne Tufan ... Lilith
Jon Ashley Hall ... Simon Prime
Shelly Lipkin ... Vincent Velo
Sibyl ... Kennedy
Jacqueline Gault ... Doctor Bannon
Meredith Adelaide ... Face of Pandora (as Meredith Williams)
Rest of cast listed alphabetically:
Bonnie Auguston ... Ashley Prime
Brenan Dwyer ... Jenna Prime
June Eisler ... Gabrielle Anderson
Olivia Klinetobe ... Young Lilith
Mariessa Portelance ... Sara Hartley
Barrie Wild ... W.K. Bradbury
Описание: Действие происходит в постапокалиптическом будущем. Каждый день Лилит, живущая под землей, выходит на улицы некогда процветавшего, а ныне разрушенного города в надежде найти какую-нибудь еду. Каждый вечер она возвращается в свое убежище и вспоминает, как это все произошло...
Качество: WEBDL-1080p
Формат: MKV
Видео: x264, 5016 Кбит/сек, 1012x1072, 23.976 к/с
Аудио 1: Русский ПД (НТВ+)(AC3, 2 ch, 192 Кбит/с)
Аудио 2: Английский (AC3, 6 ch, 384 Кбит/с)
Субтитры : Английские
Работа над релизом:
Профессиональный (двухголосый закадровый) (НТВ+, перевод Владимира Непомнящего,
текст читают Елена Солодилина, Александр Котов)



    Трейлер

Дополнительно

слоган «When Everything's Gone, Your Memories Are All You Have»
бюджет $100 000
Награды: "Платиновый приз" WorldFest Houston 2012 за лучший научно-фантастический фильм; приз за лучший фильм Accolade Competition 2012.
Also Known As (AKA) Brazil A Sobrevivente
France Apocalypse: Day One
France (DVD title) Apocalypse: Day One
===============================================
Для Украины: рип и оригинальный ДВД дополнительно залиты в файлохранилище
Для удаления,добавления и извлечения дорожек в mkv используйте бесплатную портативную mkvmerge GUI 6.2.0
Для присоединения потом дорожек к avi воспользуйтесь VirtualDubMod

Отзывы

спасибо за труд, но мнение мое старческое таково :
релиз - это не агитка и не копирка чужих мыслей = гордый на Три пушкинских "Д" достойный русской словесности релиз, из которого ясно и однозначно было б внятно-понятно ЧТО нам предлагают, ... вот продукт Рутракера....и его сидералов... отсылки на всякие Премьер, Завред, Зампред, Навред и СовсемВред, коим лишь бы сбыть ... - не авторитетно сие ... недостойно Рутракер.орг (особливо в эпоху гонений ...)
"Каждый день Лиллит бродит ... " очаровательно... Это делает каждый из нас каждый день... иногда и ночь ... если камера позволяет ... и если мысленно уже не удается... "Налетела грусть - пойду пробзд... Ведь мне себе налить не с кем... " ...
Так о чем кино, для кого и чем славен инструмент этого фильма по мнению раздающего ... Может это все тот же американский попкорнопорнокарнавал ?
--------------------------------------------------
ФилЬм оченЬ понравился . Затрагивает самые добрые чуства : жалостЬ, сострадание, понимание ... действителЬно, было болЬно смотретЬ, как главная героиня пытается существоватЬ, живя столЬ свежими и яркими воспоминаниями... и бытЬ столЬ силЬной , что-б не пытатЬся покончитЬ с собой . Правда я немного потеряласЬ во времени... не поняла, эти самолеты, это было начало всего... или конец ??? И еще, почему у пилота все время показывали перчатку с надписЬю ... думала будет связЬ, но что-то не увидела ... А так филЬм оченЬ понравился .
Раздающим спасибо ab)
-----------------------------------------------
Не каждый в состоянии понять этот фильм. Он не вкладывает в головы мысли сценаристов и режиссера, как то, что идет в кинотетрах и где все ясно - кто хороший, кто плохой, кто герой, а кто злодей, а заставляет использовать свои, заставляет думать. А если у кого-то это не получается, то дальше все происходит как дедушка Крылов описал - читайте "Лиса и виноград". Фильм серьезный и сильный. Не для любителей голивуда.
--------------------------------------------------
Это НЕ фильм катастрофа. В первую очередь это драма и те кто ждет хренаксь-шарах-бабах-все сдохли-гг выжил-спас остатки человечества, вам мимо. это фильм про чувства и мысли случайно выжившего человека. про трагедию, про скорбь.
фильм, если смотреть его как драму, весьма не плох 8/10.
раздающему респект.
-------------------------------------------

MediaInfo

Общее
Уникальный идентификатор : 237867204572124947845187383912896577578 (0xB2F38EA52376A8D9B173912C77C6C02A)
Полное имя : N:\Population.2.2013.WEB-DL.1080p.Cinemania.cc.mkv
Формат : Matroska
Версия формата : Version 4 / Version 2
Размер файла : 3,29 Гбайт
Продолжительность : 1 ч. 22 м.
Общий поток : 5706 Кбит/сек
Название фильма : CINEMANIA.CC
Дата кодирования : UTC 2013-10-11 18:30:51
Программа кодирования : mkvmerge v6.4.1 ('Omega Point') built on Sep 16 2013 22:05:10
Библиотека кодирования : libebml v1.3.0 + libmatroska v1.4.1
Видео
Идентификатор : 1
Формат : AVC
Формат/Информация : Advanced Video Codec
Профиль формата : High@L4.0
Параметр CABAC формата : Да
Параметр ReFrames формата : 4 кадра
Идентификатор кодека : V_MPEG4/ISO/AVC
Продолжительность : 1 ч. 22 м.
Битрейт : 5016 Кбит/сек
Ширина : 1912 пикселей
Высота : 1072 пикселя
Соотношение сторон : 16:9
Режим частоты кадров : Постоянный
Частота кадров : 23,976 кадра/сек
Цветовое пространство : YUV
Субдискретизация насыщенности : 4:2:0
Битовая глубина : 8 бит
Тип развёртки : Прогрессивная
Бит/(Пиксели*Кадры) : 0.102
Размер потока : 2,89 Гбайт (88%)
Заголовок : CINEMANIA.CC
Язык : English
Default : Да
Forced : Нет
Основные цвета : BT.709
Характеристики трансфера : BT.709
Коэффициенты матрицы : BT.709
Аудио #1
Идентификатор : 2
Формат : AC-3
Формат/Информация : Audio Coding 3
Расширение режима : CM (complete main)
Параметр Endianness формата : Big
Идентификатор кодека : A_AC3
Продолжительность : 1 ч. 22 м.
Вид битрейта : Постоянный
Битрейт : 192 Кбит/сек
Каналы : 2 канала
Расположение каналов : Front: L R
Частота : 48,0 КГц
Битовая глубина : 16 бит
Метод сжатия : С потерями
Размер потока : 113 Мбайт (3%)
Заголовок : Нтв+
Язык : Russian
Default : Да
Forced : Да
Аудио #2
Идентификатор : 3
Формат : AC-3
Формат/Информация : Audio Coding 3
Расширение режима : CM (complete main)
Параметр Endianness формата : Big
Идентификатор кодека : A_AC3
Продолжительность : 1 ч. 22 м.
Вид битрейта : Постоянный
Битрейт : 384 Кбит/сек
Каналы : 6 каналов
Расположение каналов : Front: L C R, Side: L R, LFE
Частота : 48,0 КГц
Битовая глубина : 16 бит
Метод сжатия : С потерями
Размер потока : 226 Мбайт (7%)
Язык : English
Default : Нет
Forced : Нет
Текст
Идентификатор : 4
Формат : UTF-8
Идентификатор кодека : S_TEXT/UTF8
Идентификатор кодека/Информация : UTF-8 Plain Text
Язык : English
Default : Нет
Forced : Нет
Меню
00:00:00.000 : en:Chapter 1
00:06:18.000 : en:Chapter 2
00:15:16.000 : en:Chapter 3
00:24:12.000 : en:Chapter 4
00:33:56.000 : en:Chapter 5
00:43:13.000 : en:Chapter 6
00:52:23.000 : en:Chapter 7
01:03:15.000 : en:Chapter 8
01:13:49.000 : en:Chapter 9
01:16:19.000 : en:Chapter 10

Скриншоты

[Profile] [PM]
Quick Reply

Name:

            
Heads necessary to send messages to enable JavaScript
Display posts:    
Reply to topic

Current time is: 26-May 18:30

All times are UTC + 3



You cannot post new topics in this forum
You can reply to topics in this forum
You cannot edit your posts in this forum
You cannot delete your posts in this forum
You cannot vote in polls in this forum
You cannot attach files in this forum
You cannot download files in this forum