Похитители тел / The Body Stealers (Джерри Леви) [1969 г., Фантастика, детектив, ужасы, DVDRip-AVC]

Reply to topic
 
Author Message

admin ®

Gender: Male

Longevity: 7 years

Posts: 4725

Location: Україна

Post 07-Sep-2012 04:25

[Quote]

Похитители тел / The Body Stealers
Год выпуска: 1969
Страна: Великобритания, Tigon Pictures
Жанр: Фантастика, детектив, ужасы
Продолжительность: 01:26:42
Перевод: Любительский одноголосый (fiendover)
Режиссер: Джерри Леви
В ролях: Джордж Сэндерс, Морис Эванс, Патрик Аллен, Нил Коннери, Хилари Хит, Роберт Флеминг, Лорна Вильде, Аллан Катбертсон, Майкл Калвер, Сэлли Фолкнер
Описание: Однажды во время военных учений пропал британский десантник. Просто выпрыгнул с парашютом из самолёта и не приземлился. А расследовавшая этот случай парочка детективов позже узнала об инопланетянах, которым зачем-то понадобились человеческие тела...
Качество: DVDRip-AVC
Формат: MKV
Видео: х264, 1692 Кбит/с, 704х544
Аудио 1: Русский (AC3, 2 кн, 192 Кбит/с)
Аудио 2: Английский (AC3, 6 кн, 448 Кбит/с)
Аудио 3: Английский (AC3, 2 кн, 192 Кбит/с)
Аудио 4: Английский (комментарий) (AC3, 2 кн, 160 Кбит/с)


Релиз

Рип с диска с CG и подгонка звука - sasha20072007, качество crf=23
Постеры и лог кодирования - в контейнере
Озвучка и перевод - fiendover
Звуковые дорожки:
1 Русский любительский одноголосый (fiendover)
2 Английский (5.1)
3 Английский (2.0)
4 Английский закадровый комментарий

Дополнительно

Для Украины: рип и оригин. ДВД дополнительно залит в файлохранилище
Рейтинг MPAA лицам до 17 лет обязательно присутствие взрослого
Для удаления и добавления дорожек в mkv используйте бесплатную mkvmerge GUI 5.80

MediaInfo

Общее
Уникальный идентификатор : 233016068098142802036869146489669978127 (0xAF4D43269337C5FD8EFB56D0B7DE880F)
Полное имя : F:\Pohititeli.tel.1969.x264.DVDRip.sereda2012.mkv
Формат : Matroska
Версия формата : Version 2
Размер файла : 1,66 Гбайт
Продолжительность : 1 ч. 26 м.
Общий поток : 2739 Кбит/сек
Название фильма : The Body Stealers / Похитители тел / 1969
Дата кодирования : UTC 2012-06-22 19:33:12
Программа кодирования : mkvmerge v5.6.0 ('Kenya Kane') built on Jun 17 2012 19:15:15
Библиотека кодирования : libebml v1.2.3 + libmatroska v1.3.0
Attachment : Yes / Yes / Yes / Yes
Видео
Идентификатор : 1
Формат : AVC
Формат/Информация : Advanced Video Codec
Профиль формата : High@L4.1
Параметр CABAC формата : Да
Параметр ReFrames формата : 8 кадров
Идентификатор кодека : V_MPEG4/ISO/AVC
Продолжительность : 1 ч. 26 м.
Битрейт : 1692 Кбит/сек
Ширина : 704 пикселя
Высота : 544 пикселя
Соотношение сторон : 1,294
Частота кадров : 25,000 кадров/сек
Цветовое пространство : YUV
Субдискретизация насыщенности : 4:2:0
Битовая глубина : 8 бит
Тип развёртки : Прогрессивная
Бит/(Пиксели*Кадры) : 0.177
Размер потока : 1,02 Гбайт (62%)
Библиотека кодирования : x264 core 124 r2197 69a0443
Настройки программы : cabac=1 / ref=8 / deblock=1:-1:-1 / analyse=0x3:0x133 / me=umh / subme=11 / psy=1 / psy_rd=1.00:0.21 / mixed_ref=1 / me_range=24 / chroma_me=1 / trellis=2 / 8x8dct=1 / cqm=0 / deadzone=6,6 / fast_pskip=1 / chroma_qp_offset=-3 / threads=6 / sliced_threads=0 / nr=0 / decimate=0 / interlaced=0 / bluray_compat=0 / constrained_intra=0 / bframes=8 / b_pyramid=2 / b_adapt=2 / b_bias=0 / direct=1 / weightb=1 / open_gop=0 / weightp=2 / keyint=220 / keyint_min=22 / scenecut=40 / intra_refresh=0 / rc_lookahead=60 / rc=crf / mbtree=1 / crf=23.0 / qcomp=0.80 / qpmin=0 / qpmax=69 / qpstep=4 / vbv_maxrate=17500 / vbv_bufsize=14000 / crf_max=0.0 / nal_hrd=none / ip_ratio=1.20 / aq=1:0.90
Default : Да
Forced : Нет
Основные цвета : BT.470-6 System B, BT.470-6 System G, BT.601-6 625, BT.1358 625, BT.1700 625 PAL, BT.1700 625 SECAM
Характеристики трансфера : BT.470-6 System B, BT.470-6 System G
Коэффициенты матрицы : BT.470-6 System B, BT.470-6 System G, BT.601-6 625, BT.1358 625, BT.1700 625 PAL, BT.1700 625 SECAM, IEC 61966-2-4 601
Аудио #1
Идентификатор : 2
Формат : AC-3
Формат/Информация : Audio Coding 3
Расширение режима : CM (complete main)
Параметр Endianness формата : Big
Идентификатор кодека : A_AC3
Продолжительность : 1 ч. 26 м.
Вид битрейта : Постоянный
Битрейт : 192 Кбит/сек
Каналы : 2 канала
Расположение каналов : Front: L R
Частота : 48,0 КГц
Битовая глубина : 16 бит
Метод сжатия : С потерями
Размер потока : 119 Мбайт (7%)
Заголовок : Русский (fiendover)
Язык : Russian
Default : Да
Forced : Нет
Аудио #2
Идентификатор : 3
Формат : AC-3
Формат/Информация : Audio Coding 3
Расширение режима : CM (complete main)
Параметр Endianness формата : Big
Идентификатор кодека : A_AC3
Продолжительность : 1 ч. 26 м.
Вид битрейта : Постоянный
Битрейт : 448 Кбит/сек
Каналы : 6 каналов
Расположение каналов : Front: L C R, Side: L R, LFE
Частота : 48,0 КГц
Битовая глубина : 16 бит
Метод сжатия : С потерями
Задержка видео : 72 мс.
Размер потока : 278 Мбайт (16%)
Заголовок : 5.1
Язык : English
Default : Нет
Forced : Нет
Аудио #3
Идентификатор : 4
Формат : AC-3
Формат/Информация : Audio Coding 3
Расширение режима : CM (complete main)
Параметр Endianness формата : Big
Идентификатор кодека : A_AC3
Продолжительность : 1 ч. 26 м.
Вид битрейта : Постоянный
Битрейт : 192 Кбит/сек
Каналы : 2 канала
Расположение каналов : Front: L R
Частота : 48,0 КГц
Битовая глубина : 16 бит
Метод сжатия : С потерями
Размер потока : 119 Мбайт (7%)
Заголовок : 2.0
Язык : English
Default : Нет
Forced : Нет
Аудио #4
Идентификатор : 5
Формат : AC-3
Формат/Информация : Audio Coding 3
Расширение режима : CM (complete main)
Параметр Endianness формата : Big
Идентификатор кодека : A_AC3
Продолжительность : 1 ч. 26 м.
Вид битрейта : Постоянный
Битрейт : 160 Кбит/сек
Каналы : 2 канала
Расположение каналов : Front: L R
Частота : 48,0 КГц
Битовая глубина : 16 бит
Метод сжатия : С потерями
Размер потока : 99,2 Мбайт (6%)
Заголовок : Comment
Язык : English
Default : Нет
Forced : Нет
Текст #1
Идентификатор : 6
Формат : VobSub
Идентификатор кодека : S_VOBSUB
Идентификатор кодека/Информация : The same subtitle format used on DVDs
Язык : English
Default : Нет
Forced : Нет
Текст #2
Идентификатор : 7
Формат : UTF-8
Идентификатор кодека : S_TEXT/UTF8
Идентификатор кодека/Информация : UTF-8 Plain Text
Язык : English
Default : Нет
Forced : Нет
Меню
00:00:00.000 : :Chapter 01
00:04:47.400 : :Chapter 02
00:08:00.800 : :Chapter 03
00:12:25.400 : :Chapter 04
00:16:07.400 : :Chapter 05
00:21:28.200 : :Chapter 06
00:25:47.600 : :Chapter 07
00:28:46.800 : :Chapter 08
00:34:08.000 : :Chapter 09
00:40:00.200 : :Chapter 10
00:47:01.800 : :Chapter 11
00:52:53.600 : :Chapter 12
00:58:49.600 : :Chapter 13
01:03:37.600 : :Chapter 14
01:07:16.400 : :Chapter 15
01:14:49.400 : :Chapter 16
01:18:54.600 : :Chapter 17
01:25:32.200 : :Chapter 18
01:26:41.400 : :Chapter 19

Скриншоты



cd Рип дополнительно залит на ОБЛАКО cd2
[Profile] [PM]
Display posts:    
Reply to topic

Current time is: 21-Sep 01:33

All times are UTC + 3



You cannot post new topics in this forum
You cannot reply to topics in this forum
You cannot edit your posts in this forum
You cannot delete your posts in this forum
You cannot vote in polls in this forum
You cannot attach files in this forum
You cannot download files in this forum