Ползучая рука / Крадущаяся рука / The Crawling Hand (Герберт Строк / Herbert L. Strock) (1963)[DVDRip] АО (Трамвай-фильм), СТ (koto2008,Трамвай-фильм,kosmoaelita)

Reply to topic
 
Author Message

Guest ®

Gender: Unknown

Post 07-Sep-2013 18:58

[Quote]

Ползучая рука / Крадущаяся рука / The Crawling Hand
Название: Ползучая рука
Оригинальное название: The Crawling Hand
Год выхода: 1963
Жанр: ужасы, фантастика
Выпущено: США, Joseph F. Robertson Productions
Продолжительность: 01:28:02
Перевод 1: Авторский одноголосый Трамвай-фильм
Перевод 2: Субтитры koto2008, Трамвай-фильм, kosmoaelita
Режиссер: Герберт Строк / Herbert L. Strock
В ролях:
Peter Breck ... Steve Curan
Kent Taylor ... Dr. Max Weitzberg
Rod Lauren ... Paul Lawrence
Alan Hale Jr. ... Sheriff Townsend (as Alan Hale)
Allison Hayes ... Donna
Sirry Steffen ... Marta Farnstrom
Arline Judge ... Mrs. Hotchkiss
Richard Arlen ... Lee Barrenger
Tristram Coffin ... Security Chief Meidel (as Tristam Coffin)
Ross Elliott ... Deputy Earl Harrison
Stan Jones ... Funeral Director (as G. Stanley Jones)
Jock Putnam ... Ambulance Attendant
Andy Andrews ... Ambulance Attendant
Syd Saylor ... Soda Shop Owner
Ed Wermer ... Prof. Farnstrom
О фильме:
В побывавшего на Луне астронавта вселяется неведомая сила, что бы не допустить её проникновение на Землю кураторы космической программы подрывают капсулу, с обезумевшим пилотом. Казалось бы все хорошо? Однако студент медшколы Пол Лоуренс находит на пляже странную оторванную руку в обрывке скафандра... и приносит её домой. Однако, как выясняется, рука эта вовсе не безжизненная, и вскоре она полностью подчиняет себе разум парня, заставляя того творить жуткие вещи
Качество: DVDRip
Формат: MKV
Видео: xvid, 1358 кбит/с, 608x464, 23.976 к/с
Аудио 1: Русский АО (Трамвай-фильм) (AC3, 2 ch, 192 Кбит/с)
Аудио 2: Английский (AC3, 2 ch, 192 Кбит/с)
Субтитры Русские (koto2008, Трамвай-фильм, kosmoaelita)
Работа над релизом:
Рип найден на карагарге.
Русская озвучка и перевод - Трамвай-фильм.
Синхр. русской дорожки - sasha20072007 (kosmoaelita)
Работа над русскими субтитрами - koto2008, Трамвай-фильм, kosmoaelita
Сравнение: kosmoaelita.com vs. Трамвай



Трейлер

Дополнительно

слоган «Astronaut Ordered Blown Up!!!»
бюджет $100 000
Also Known As (AKA)
Italy La mano strisciante
USA (alternative title) Don't Cry Wolf
USA (alternative title) The Creeping Hand
USA (working title) Tomorrow You Die
Для Украины: рип и оригинальный ДВД дополнительно залиты в файлохранилище

Отзывы

MediaInfo

Общее
Уникальный идентификатор : 226739342695279308361414589794031697474 (0xAA9468B20B87FFD1BAD72DE34C46FE42)
Полное имя : F:\The Crawling Hand 1963.XviD.DVDRip.Rus.kosmoaelita.mkv
Формат : Matroska
Версия формата : Version 4 / Version 2
Размер файла : 1,09 Гбайт
Продолжительность : 1 ч. 28 м.
Общий поток : 1777 Кбит/сек
Название фильма : Ползучая рука / Крадущаяся рука / The Crawling Hand / 1963 / kosmoaelita
Дата кодирования : UTC 2015-02-21 20:12:08
Программа кодирования : mkvmerge v6.6.0 ('The Edge Of The In Between') built on Dec 1 2013 17:55:00
Библиотека кодирования : libebml v1.3.0 + libmatroska v1.4.1
Видео
Идентификатор : 1
Формат : MPEG-4 Visual
Профиль формата : Advanced Simple@L5
Параметр BVOP формата : Да
Параметр QPel формата : Нет
Параметр GMC формата : Без точки перехода
Параметр матрицы формата : Выборочная
Идентификатор кодека : V_MS/VFW/FOURCC / XVID
Идентификатор кодека/Подсказка : XviD
Продолжительность : 1 ч. 28 м.
Битрейт : 1358 Кбит/сек
Ширина : 608 пикселей
Высота : 464 пикселя
Соотношение сторон : 4:3
Режим частоты кадров : Постоянный
Частота кадров : 23,976 кадра/сек
Цветовое пространство : YUV
Субдискретизация насыщенности : 4:2:0
Битовая глубина : 8 бит
Тип развёртки : Прогрессивная
Метод сжатия : С потерями
Бит/(Пиксели*Кадры) : 0.201
Размер потока : 855 Мбайт (76%)
Библиотека кодирования : XviD 1.2.1 (UTC 2008-12-04)
Default : Да
Forced : Нет
Аудио #1
Идентификатор : 2
Формат : AC-3
Формат/Информация : Audio Coding 3
Расширение режима : CM (complete main)
Параметр Endianness формата : Big
Идентификатор кодека : A_AC3
Продолжительность : 1 ч. 28 м.
Вид битрейта : Постоянный
Битрейт : 192 Кбит/сек
Каналы : 2 канала
Расположение каналов : Front: L R
Частота : 48,0 КГц
Битовая глубина : 16 бит
Метод сжатия : С потерями
Размер потока : 121 Мбайт (11%)
Заголовок : Русский ЛО (Трамвай-фильм)
Язык : Russian
Default : Да
Forced : Нет
Аудио #2
Идентификатор : 3
Формат : AC-3
Формат/Информация : Audio Coding 3
Расширение режима : CM (complete main)
Параметр Endianness формата : Big
Идентификатор кодека : A_AC3
Продолжительность : 1 ч. 28 м.
Вид битрейта : Постоянный
Битрейт : 192 Кбит/сек
Каналы : 2 канала
Расположение каналов : Front: L R
Частота : 48,0 КГц
Битовая глубина : 16 бит
Метод сжатия : С потерями
Размер потока : 121 Мбайт (11%)
Язык : English
Default : Нет
Forced : Нет
Текст #1
Идентификатор : 4
Формат : VobSub
Режим смешивания : zlib
Идентификатор кодека : S_VOBSUB
Идентификатор кодека/Информация : The same subtitle format used on DVDs
Заголовок : Русский (koto2008,Трамвай-фильм, kosmoaelita) VobSub - на слух с англ.
Язык : Russian
Default : Да
Forced : Нет
Текст #2
Идентификатор : 5
Формат : UTF-8
Идентификатор кодека : S_TEXT/UTF8
Идентификатор кодека/Информация : UTF-8 Plain Text
Заголовок : Русский (koto2008,Трамвай-фильм, kosmoaelita) srt - на слух с англ.
Язык : Russian
Default : Нет
Forced : Нет

Скриншоты












Скринлист

cd Рип дополнительно залит на mail.ru cd2
 

Guest ®

Gender: Unknown

Post 16-Sep-2013 14:45 (after 8 days)

[Quote]

На КГ есть нормальный рип https://karagarga.net/details.php?id=75430
Наложит кто-нибудь дорогу? я не умею
 

admin

Gender: Male

Longevity: 8 years

Posts: 4794

Post 16-Sep-2013 22:32 (after 7 hours)

[Quote]

Перезалей его куда-нибудь с карагарды типа на яндекс. Если не будет дикого рассинхрона по всему фильму - то на выходных сделаю
[Profile] [PM]

Guest ®

Gender: Unknown

Post 17-Sep-2013 08:43 (after 10 hours)

[Quote]

 

Guest ®

Gender: Unknown

Post 17-Sep-2013 10:06 (after 1 hour 22 minutes)

[Quote]

вчера был единственный турецкий сид
сейчас и он куда-то пропал
_________________________________
надеюсь до выходных он появится
 

Guest ®

Gender: Unknown

Post 21-Sep-2013 11:26 (after 4 days)

[Quote]

3836На КГ есть нормальный рип https://karagarga.net/details.php?id=75430
Наложит кто-нибудь дорогу? я не умею
http://kosmoaelita.com/viewtopic.php?p=3855#3855
 

Guest ®

Gender: Unknown

Post 21-Sep-2013 11:41 (after 15 minutes)

[Quote]

Похоже мы одновременно скачали и сделали раздачу смайлик+
Перезалито в лучшем качестве видео.
Сравнение: kosmoaelita.com vs. Трамвай
 

Guest ®

Gender: Unknown

Post 21-Sep-2013 13:03 (after 1 hour 22 minutes)

[Quote]

Спасибо. Две одинаковых раздачи лучше, чем ни одной)
 

admin

Gender: Male

Longevity: 8 years

Posts: 4794

Post 21-Feb-2015 22:09 (after 1 year 5 months)

[Quote]

Добавлены русские субтитры.
В обмен на них romeos сделал исп. сабы к Los Astronautas 1964
[Profile] [PM]

Трамвай-фильм

Gender: Male

Longevity: 6 years 1 month

Posts: 1863

Location: Россия

Post 22-Feb-2015 12:52 (after 14 hours)

[Quote]

Я рип брал с архив.орг. Как я понял субы делали по моему черновику?
[Profile] [PM]

kosmoaelita

Gender: Male

Longevity: 8 years

Posts: 1641

Post 22-Feb-2015 14:05 (after 1 hour 13 minutes)

[Quote]

Без понятия. Попросил человека исправить и дополнить сабы, которые делал с вашего черновика
[Profile] [PM]
Display posts:    
Reply to topic

Current time is: 23-Sep 22:03

All times are UTC + 3



You cannot post new topics in this forum
You cannot reply to topics in this forum
You cannot edit your posts in this forum
You cannot delete your posts in this forum
You cannot vote in polls in this forum
You cannot attach files in this forum
You cannot download files in this forum