Аврора / Aurora (Кристофер Куликовски / Christopher Kulikowski) [1998 г., фантастика, приключения, DVDRip] АО (Горчаков)

Reply to topic
 
Author Message

admin ®

Gender: Male

Longevity: 8 years 1 month

Posts: 4794

Post 20-Aug-2013 00:50

[Quote]

Аврора / Aurora
Релиз - kosmoaelita.com
Год выпуска: 1998
Страна: США, Rara Avis Films
Жанр: фантастика, приключения
Продолжительность: 01:27:28
Перевод: Авторский одноголосый
Режиссер: Кристофер Куликовски / Christopher Kulikowski
В ролях: Christopher Stapleton ... Alexander Todd (as Christopher J. Stapleton)
Michael Otis ... Matthias
David Jean Thomas ... Vincent
Christopher Heltai ... Robert
Markus Botnick ... Peter
Micheal DiMaggio ... John
Ted Wycech ... Stephen / Ship's medic
Newcomb Barger ... Drake rescue party
Colin Whelan ... Drake rescue party
Miguel Rueda ... Drake rescue party
Описание: В 22-м веке семеро исследователей отправляются в экспедицию на ближайшую похожую на Землю планету, Аврору. Их задача - выяснить, пригодна ли эта планета для колонизации. При подлете к Авроре, их корабль выходит из строя, и им приходится совершить аварийную посадку. На планете бушуют стихии: невыносимая жара, отравленная вода и ужасные ветры. Их единственный шанс выжить в этих условиях - найти баки с запасным горючим, до которых придется пройти 400 миль...

Релиз

Качество: DVDRip
Формат: AVI
Видео: xviD, 2040 кбит/с, 720x544, 25 к/с
Аудио 1: Русский (AC3, 2 ch, 192 Кбит/с)
Аудио 2: Английский (AC3, 3 ch, 256 Кбит/с)


Релиз

Релиз - kosmoaelita.com
Рип найден на пиратской бухте.
Русскую дорожку с VHS любезно предоставил Андрей Бондаренко
Синхрон и работа со звуком - sasha20072007 (kosmoaelita)
Длинные музыкальные фрагменты заменены более качественными с англ. дорожки.
Для Украины: рип дополнительно залит в файлохранилище
Для удаления,добавления и извлечения дорожек в mkv используйте бесплатную портативную mkvmerge GUI 6.2.0
Для присоединения потом дорожек к avi воспользуйтесь VirtualDubMod

Дополнительно

слоган «A brave new world. A struggle for survival.»
бюджет $90 000
Also Known As (AKA)
Greece (video title) I apoikia

Рецензия

MediaInfo

Общее
Полное имя : N:\Aurora 1998.XviD.DVDRip.kosmoaelita.avi
Формат : AVI
Формат/Информация : Audio Video Interleave
Размер файла : 1,53 Гбайт
Продолжительность : 1 ч. 27 м.
Общий поток : 2502 Кбит/сек
Программа кодирования : VirtualDubMod 1.5.10.3 (build 2550/release)
Библиотека кодирования : VirtualDubMod build 2550/release
Видео
Идентификатор : 0
Формат : MPEG-4 Visual
Профиль формата : Advanced Simple@L5
Параметр BVOP формата : Нет
Параметр QPel формата : Нет
Параметр GMC формата : Без точки перехода
Параметр матрицы формата : Выборочная
Идентификатор кодека : XVID
Идентификатор кодека/Подсказка : XviD
Продолжительность : 1 ч. 27 м.
Битрейт : 2040 Кбит/сек
Ширина : 720 пикселей
Высота : 544 пикселя
Соотношение сторон : 4:3
Частота кадров : 25,000 кадров/сек
Цветовое пространство : YUV
Субдискретизация насыщенности : 4:2:0
Битовая глубина : 8 бит
Тип развёртки : Прогрессивная
Метод сжатия : С потерями
Бит/(Пиксели*Кадры) : 0.208
Размер потока : 1,25 Гбайт (82%)
Библиотека кодирования : XviD 64
Аудио #1
Идентификатор : 1
Формат : AC-3
Формат/Информация : Audio Coding 3
Расширение режима : CM (complete main)
Параметр Endianness формата : Big
Идентификатор кодека : 2000
Продолжительность : 1 ч. 27 м.
Вид битрейта : Постоянный
Битрейт : 192 Кбит/сек
Каналы : 2 канала
Расположение каналов : Front: L R
Частота : 48,0 КГц
Битовая глубина : 16 бит
Метод сжатия : С потерями
Размер потока : 120 Мбайт (8%)
Выравнивание : Разделение по промежуткам
Продолжительность промежутка : 40 мс. (1,00 видеокадр)
Время предзагрузки промежутка : 500 мс.
Заголовок : Русский АО () AC3 2.0 192
Аудио #2
Идентификатор : 2
Формат : AC-3
Формат/Информация : Audio Coding 3
Расширение режима : CM (complete main)
Параметр Endianness формата : Big
Идентификатор кодека : 2000
Продолжительность : 1 ч. 27 м.
Вид битрейта : Постоянный
Битрейт : 256 Кбит/сек
Каналы : 3 канала
Расположение каналов : Front: L R, Side: C
Частота : 48,0 КГц
Битовая глубина : 16 бит
Метод сжатия : С потерями
Размер потока : 160 Мбайт (10%)
Выравнивание : Разделение по промежуткам
Продолжительность промежутка : 40 мс. (1,00 видеокадр)
Время предзагрузки промежутка : 500 мс.
Заголовок : Engl AC3 2.1 256
cd Рип дополнительно залит на ОБЛАКО cd2


Last edited by admin on 2013-08-20 01:18; edited 5 times in total
[Profile] [PM]

admin ®

Gender: Male

Longevity: 8 years 1 month

Posts: 4794

Post 20-Aug-2013 00:59 (after 8 minutes)

[Quote]

Рип найден на пиратской бухте.
Русскую дорожку с VHS любезно предоставил Андрей Бондаренко
Синхрон и работа со звуком - sasha20072007 (kosmoaelita)
Длинные музыкальные фрагменты заменены более качественными с англ. дорожки.
[Profile] [PM]

Guest

Gender: Unknown

Post 12-Nov-2013 20:43 (after 2 months 22 days)

[Quote]

Ещё один фильм, в котором все роли исполняют только мужчины!
КО: Видимо так и было задумано!
 
Display posts:    
Reply to topic

Current time is: 20-Oct 03:10

All times are UTC + 3



You cannot post new topics in this forum
You cannot reply to topics in this forum
You cannot edit your posts in this forum
You cannot delete your posts in this forum
You cannot vote in polls in this forum
You cannot attach files in this forum
You cannot download files in this forum