Куотермасс и колодец / Quatermass and the Pit (Five Million Years to Earth) (Рой Уорд Бэйкер / Roy Ward Baker) [1967 г., Ужасы, фантастика, BDRip-1080р] ПМ (Лексикон), ЛО, СТ (Mr. Titz)

Reply to topic
 
Author Message

admin ®

Gender: Male

Longevity: 7 years 1 month

Posts: 4725

Location: Україна

Post 06-Sep-2012 23:55

[Quote]

Куотермасс и колодец / Quatermass and the Pit (Five Million Years to Earth)
Год выпуска: 1967
Страна: Великобритания, Hammer Film Productions
Жанр: Ужасы, фантастика
Продолжительность: 01:37:52
Перевод: ПМ (Лексикон), ЛО (Mr. Titz)
Режиссер: Рой Уорд Бэйкер / Roy Ward Baker
В ролях: Джеймс Дональд, Эндрю Кир, Барбара Шелли, Джулиан Гловер, Дункан Ламонт, Брайан Маршалл, Питер Копли, Морис Гуд, Грант Тейлор
Описание: Работы в лондонском метрополитене приводят к обнаружению космического корабля, прибывшего с Марса пять миллионов лет тому назад. Внутри ученые обнаруживают странные кости и черепа, принадлежащие обезьяноподобным существам. По мнению профессора Куотермасса, именно инопланетяне были источником пробуждения интеллекта на Земле. Тем временем, один рабочий утверждает, что видел некое зеленоватое существо, пересекшее внутренний отсек корабля. Неужели марсиане все еще находятся на нашей планете? Может быть, это они придумали легенду про дьявола, чтобы зло проникло в наше подсознание?…
Качество: BDRip(1080р)
Формат: MKV
Видео: х264, 8953 Кбит/с, 1792x1080
Аудио 1: Русский ПМ Лексикон (AC3, 2 ch, 192 Кбит/с
Аудио 2: Русский ЛО (AC3, 2 ch, 192 Кбит/с
Аудио 3: Английский (AC3, 2 ch, 640 Кбит/с)
Аудио 4: Английский (AC3, 2 ch, 192 Кбит/с)
Субтитры: Русские (Mr. Titz), английские, французские, итальянские, испанские, португальские, бразильские

Дополнительно

Русская озвучка 1 - ПМ студия Лексикон по заказу кинокомпании
Русская озвучка 1 - ЛО
Русские субтитры - Mr. Titz
Спасибо David_Carradine за русскую дорожку
Режиссерский дебют Роя Уорда Бейкера на студии Хаммер.
Закрытую при странных обстоятельствах станцию метро «Hobbs end» (название известное всем любителям творчества Джона Карпентера) решают отреставрировать и снова открыть.
Расчищая туннель, строительная компания обнаруживает несколько хорошо сохранившихся скелетов. Находка поистине уникальна – это скелеты неандертальцев, которым несколько миллионов лет. Но далее следует куда более интересная находка. Большой обтекаемый предмет сначала принимают за неразорвавшийся снаряд, но прибывшие саперы уверяют, что никогда не видели ничего подобного. Странный объект не только не удается открыть, но даже поцарапать. К исследованиям подключается профессор Бернард Куотермасс. После безуспешных попыток открыть таинственный объект, он внезапно раскалывается сам и взору изумленных ученых предстают …. огромные кузнечики, лежащие в стеклянных ячейках. Представители духовенства считают данное место обителью дьявола и говорят о многочисленных случаях одержимости упоминающихся в старинных книгах. Военные же уверены, что все это результаты научных экспериментов фашистов по созданию супероружия. Однако Куотермасс выдвигает собственную поразительную теорию. Он утверждает, что обнаруженные насекомые – разумные жители другой планеты. Много миллионов лет назад они вызывали мутации у человекообразных обезьян, что и привело к развитию интеллекта. Однако целью гигантской саранчи являлась вовсе не благотворительность…
Фильм также известен под названием "Куотермасс и преисподняя".
Для удаления и добавления дорожек в mkv используйте бесплатную mkvmerge GUI 5.80

MediaInfo

Общее
Уникальный идентификатор : 245444888459502611051085931056490725276 (0xB8A6F74E45C4EC49A3FD9A479019BF9C)
Полное имя : E:\0000\Куотермасс и колодец Quatermass and the Pit 1967.x264.BDRip.1080p.mkv
Формат : Matroska
Версия формата : Version 4 / Version 2
Размер файла : 6,96 Гбайт
Продолжительность : 1 ч. 37 м.
Общий поток : 10,2 Мбит/сек
Название фильма : Куотермасс и колодец / Quatermass And The Pit / 1967 / BDRip-1080p
Дата кодирования : UTC 2010-02-22 21:41:31
Программа кодирования : mkvmerge v5.8.0 ('No Sleep / Pillow') built on Sep 30 2012 10:57:14
Библиотека кодирования : libebml v1.3.0 + libmatroska v1.4.0
Attachment : Yes / Yes / Yes / Yes / Yes
Видео
Идентификатор : 1
Формат : AVC
Формат/Информация : Advanced Video Codec
Профиль формата : High@L4.0
Параметр CABAC формата : Да
Параметр ReFrames формата : 4 кадра
Идентификатор кодека : V_MPEG4/ISO/AVC
Продолжительность : 1 ч. 37 м.
Битрейт : 8953 Кбит/сек
Ширина : 1792 пикселя
Высота : 1080 пикселей
Соотношение сторон : 1,659
Режим частоты кадров : Постоянный
Частота кадров : 23,976 кадра/сек
Цветовое пространство : YUV
Субдискретизация насыщенности : 4:2:0
Битовая глубина : 8 бит
Тип развёртки : Прогрессивная
Бит/(Пиксели*Кадры) : 0.193
Размер потока : 5,99 Гбайт (86%)
Библиотека кодирования : x264 core 118 r2085 8a62835
Настройки программы : cabac=1 / ref=4 / deblock=1:0:0 / analyse=0x3:0x133 / me=umh / subme=7 / psy=1 / psy_rd=1.00:0.00 / mixed_ref=1 / me_range=16 / chroma_me=1 / trellis=1 / 8x8dct=1 / cqm=0 / deadzone=21,11 / fast_pskip=0 / chroma_qp_offset=-2 / threads=6 / sliced_threads=0 / nr=0 / decimate=1 / interlaced=0 / bluray_compat=0 / constrained_intra=0 / bframes=3 / b_pyramid=2 / b_adapt=2 / b_bias=0 / direct=3 / weightb=1 / open_gop=0 / weightp=2 / keyint=250 / keyint_min=23 / scenecut=40 / intra_refresh=0 / rc_lookahead=50 / rc=2pass / mbtree=1 / bitrate=8953 / ratetol=1.0 / qcomp=0.60 / qpmin=0 / qpmax=69 / qpstep=4 / cplxblur=20.0 / qblur=0.5 / ip_ratio=1.40 / aq=1:1.00
Язык : English
Default : Да
Forced : Нет
Аудио #1
Идентификатор : 2
Формат : AC-3
Формат/Информация : Audio Coding 3
Расширение режима : CM (complete main)
Параметр Endianness формата : Big
Идентификатор кодека : A_AC3
Продолжительность : 1 ч. 37 м.
Вид битрейта : Постоянный
Битрейт : 192 Кбит/сек
Каналы : 2 канала
Расположение каналов : Front: L R
Частота : 48,0 КГц
Битовая глубина : 16 бит
Метод сжатия : С потерями
Размер потока : 134 Мбайт (2%)
Заголовок : Русский ПМ (Лексикон)
Язык : Russian
Default : Да
Forced : Нет
Аудио #2
Идентификатор : 3
Формат : AC-3
Формат/Информация : Audio Coding 3
Расширение режима : CM (complete main)
Параметр Endianness формата : Big
Идентификатор кодека : A_AC3
Продолжительность : 1 ч. 37 м.
Вид битрейта : Постоянный
Битрейт : 192 Кбит/сек
Каналы : 2 канала
Расположение каналов : Front: L R
Частота : 48,0 КГц
Битовая глубина : 16 бит
Метод сжатия : С потерями
Размер потока : 134 Мбайт (2%)
Заголовок : Русский (ЛО)
Язык : Russian
Default : Нет
Forced : Нет
Аудио #3
Идентификатор : 4
Формат : AC-3
Формат/Информация : Audio Coding 3
Расширение режима : CM (complete main)
Параметр Endianness формата : Big
Идентификатор кодека : A_AC3
Продолжительность : 1 ч. 37 м.
Вид битрейта : Постоянный
Битрейт : 640 Кбит/сек
Каналы : 2 канала
Расположение каналов : Front: L R
Частота : 48,0 КГц
Битовая глубина : 16 бит
Метод сжатия : С потерями
Размер потока : 448 Мбайт (6%)
Язык : English
Default : Нет
Forced : Нет
Аудио #4
Идентификатор : 5
Формат : AC-3
Формат/Информация : Audio Coding 3
Расширение режима : CM (complete main)
Параметр Endianness формата : Big
Идентификатор кодека : A_AC3
Продолжительность : 1 ч. 37 м.
Вид битрейта : Постоянный
Битрейт : 192 Кбит/сек
Каналы : 2 канала
Расположение каналов : Front: L R
Частота : 48,0 КГц
Битовая глубина : 16 бит
Метод сжатия : С потерями
Размер потока : 134 Мбайт (2%)
Заголовок : Comment
Язык : English
Default : Нет
Forced : Нет
Текст #1
Идентификатор : 6
Формат : UTF-8
Идентификатор кодека : S_TEXT/UTF8
Идентификатор кодека/Информация : UTF-8 Plain Text
Заголовок : Русский (Mr. Titz) , 2010г
Язык : Russian
Default : Да
Forced : Нет
Текст #2
Идентификатор : 7
Формат : UTF-8
Идентификатор кодека : S_TEXT/UTF8
Идентификатор кодека/Информация : UTF-8 Plain Text
Язык : English
Default : Нет
Forced : Нет
Текст #3
Идентификатор : 8
Формат : UTF-8
Идентификатор кодека : S_TEXT/UTF8
Идентификатор кодека/Информация : UTF-8 Plain Text
Язык : Spanish
Default : Нет
Forced : Нет
Текст #4
Идентификатор : 9
Формат : UTF-8
Идентификатор кодека : S_TEXT/UTF8
Идентификатор кодека/Информация : UTF-8 Plain Text
Язык : French
Default : Нет
Forced : Нет
Текст #5
Идентификатор : 10
Формат : UTF-8
Идентификатор кодека : S_TEXT/UTF8
Идентификатор кодека/Информация : UTF-8 Plain Text
Язык : Italian
Default : Нет
Forced : Нет
Текст #6
Идентификатор : 11
Формат : UTF-8
Идентификатор кодека : S_TEXT/UTF8
Идентификатор кодека/Информация : UTF-8 Plain Text
Язык : Portuguese
Default : Нет
Forced : Нет
Текст #7
Идентификатор : 12
Формат : UTF-8
Идентификатор кодека : S_TEXT/UTF8
Идентификатор кодека/Информация : UTF-8 Plain Text
Заголовок : Brazilian
Язык : bra
Default : Нет
Forced : Нет
Меню
00:00:00.000 : en:Unexpected find
00:07:15.518 : en:Colonel Breen
00:17:22.249 : en:Hob's lane
00:24:33.096 : en:Empty shell
00:34:37.241 : en:The drill
00:38:10.079 : en:Demons
00:54:54.249 : en:Spiritual evil
01:06:43.874 : en:"I can see"
01:11:54.893 : en:The memory
01:15:32.611 : en:"It's coming alive"
01:29:53.429 : en:The horned devil
01:36:16.061 : en:End credits

Скриншоты


cd Рип дополнительно залит на ОБЛАКО cd2


Last edited by admin on 2016-06-05 02:13; edited 3 times in total
[Profile] [PM]

admin ®

Gender: Male

Longevity: 7 years 1 month

Posts: 4725

Location: Україна

Post 30-Oct-2012 21:10 (after 1 month 23 days)

[Quote]

Торрент перезалит - добавлена проф. озвучка
[Profile] [PM]

anvic

Gender: Male

Longevity: 7 years

Posts: 62

Post 30-Oct-2012 23:14 (after 2 hours 4 minutes)

[Quote]

Спасибо!!!!!
[Profile] [PM]

Guest

Gender: Unknown

Post 31-Oct-2012 13:15 (after 14 hours)

[Quote]

много прыгает звук? у меня видимо глючная была мозилла,в ней даже ютуб тормозил,снес вчера,щас стоит посл версия.
 

admin ®

Gender: Male

Longevity: 7 years 1 month

Posts: 4725

Location: Україна

Post 31-Oct-2012 17:54 (after 4 hours)

[Quote]

Ничего не прыгает.Просто время то отстает, то спешит.Три часа уходит на синхрон...
[Profile] [PM]
Quick Reply

Name:

            
Heads necessary to send messages to enable JavaScript
Display posts:    
Reply to topic

Current time is: 21-Oct 05:45

All times are UTC + 3



You cannot post new topics in this forum
You can reply to topics in this forum
You cannot edit your posts in this forum
You cannot delete your posts in this forum
You cannot vote in polls in this forum
You cannot attach files in this forum
You cannot download files in this forum