Это прибыло со дна моря (цветной) / Оно прибыло со дна моря / It Came from Beneath the Sea (Бобби Гордон / Robert Gordon) [1955, США, Фантастика, ужасы, 1080p, Rus (ЛО-И.Степанов) Ukr Eng / Rus Eng sub

Reply to topic
 
Author Message

admin ®

Gender: Male

Longevity: 7 years 2 months

Posts: 4723

Post 06-Sep-2012 22:56

[Quote]

Это прибыло со дна моря (цветной) / Оно прибыло со дна моря / It Came from Beneath the Sea

Страна: США
Жанр: Драма, ужасы, фантастика
Год выпуска: 1955
Продолжительность: 01:19:07
Перевод: Одноголосый закадровый Игорь Степанов
Cубтитры: Русские (Demonia131), английские
Оригинальная аудиодорожка: Английский
Режиссер: Бобби Гордон / Robert Gordon
В ролях: Кеннет Тоби, Фэйт Домергу, Дональд Кёртис, Иэн Кит, Дин Мэддокс мл., Чак Гриффитс, Гарри Лоутер, Ричард В. Петерсон, Тол Эйвери, Дел Кортни
Описание: Атомная субмарина замечает в океане огромный неизвестный движущийся объект. Тем временем с судов, которые занимаются в этом районе ловом рыбы, начинают поступать сообщения о таинственных исчезновениях людей. Ученые начинают расследование и обнаруживают гигантского осьминога, ставшего таким в результате ядерных испытаний в океане…
Качество видео: BDRip(1080p)
Формат видео: MKV
Видео: x264, 11.4 Мбит/с, 1920х1040, 23,976 к/с
Аудио 1: Русский (И.Степанов)) (AC3, 2 ch, 192 Кбит/с),
Аудио 2: Украинский (1+1) (AC3, 5.1 ch, 448 Кбит/с),
Аудио 3: Английский (AC3, 5.1 ch, 448 Кбит/с)
Субтитры 1: Русские, srt
Субтитры 2: Английские, srt

Подобные раздачи 720p

Релиз

Рип стянут с юзенета
Монтаж - sasha20072007

Дополнительно

Другие названия:
Das Grauen aus der Tiefe West Germany
Il mostro dei mari Italy
La bestia del mar Venezuela
La fiera del mar Chile
Le monstre vient de la mer France
Merenpohjan hirviö Finland
Monster from Beneath the Sea (undefined)
O Monstro Do Mar Revolto Brazil
O Octopus Portugal (imdb display title)
Paniek in San Francisco Belgium (Flemish title)
Panique à San Francisco Belgium (French title)
Surgió del fondo del mar Spain
To ypovryhion teras Greece (transliterated ISO-LATIN-1 title)
Для Украины фильм дополнительно залит в файлохранилище
Слоган «IT CRUSHES! KILLS! DESTROYS!»
Бюджет картины был настолько мал, что пришлось пойти на хитрость и сделать не 8-щупальцевого осьминога, как положено, а с шестью конечностями
Для удаления и добавления дорожек в mkv используйте бесплатную mkvmerge GUI 5.80

MediaInfo

Общее
Уникальный идентификатор : 226459133720116280794113262650838192052 (0xAA5E71538D61CA3F9B6CE62344AF8FB4)
Полное имя : F:\Это прибыло со дна моря 1955.x264.1080p.Rus.Ukr.Eng.mkv
Формат : Matroska
Версия формата : Version 2
Размер файла : 6,92 Гбайт
Продолжительность : 1 ч. 19 м.
Общий поток : 12,5 Мбит/сек
Название фильма : It came from beneath the sea 1955 / 1080p / Это прибыло со дна моря
Дата кодирования : UTC 2012-09-06 19:35:13
Программа кодирования : mkvmerge v5.8.0 ('No Sleep / Pillow') built on Sep 2 2012 15:37:04
Библиотека кодирования : libebml v1.2.3 + libmatroska v1.3.0
Attachment : Yes
Видео
Идентификатор : 1
Формат : AVC
Формат/Информация : Advanced Video Codec
Профиль формата : High@L4.1
Параметр CABAC формата : Да
Параметр ReFrames формата : 4 кадра
Идентификатор кодека : V_MPEG4/ISO/AVC
Продолжительность : 1 ч. 19 м.
Битрейт : 11,4 Мбит/сек
Ширина : 1920 пикселей
Высота : 1040 пикселей
Соотношение сторон : 1,85:1
Частота кадров : 23,976 кадра/сек
Цветовое пространство : YUV
Субдискретизация насыщенности : 4:2:0
Битовая глубина : 8 бит
Тип развёртки : Прогрессивная
Бит/(Пиксели*Кадры) : 0.239
Размер потока : 6,18 Гбайт (89%)
Библиотека кодирования : x264 core 88 r1471 1144615
Настройки программы : cabac=1 / ref=4 / deblock=1:-2:-1 / analyse=0x3:0x133 / me=umh / subme=10 / psy=1 / psy_rd=1.00:0.00 / mixed_ref=1 / me_range=16 / chroma_me=1 / trellis=2 / 8x8dct=1 / cqm=0 / deadzone=21,11 / fast_pskip=0 / chroma_qp_offset=-2 / threads=6 / sliced_threads=0 / nr=0 / decimate=1 / mbaff=0 / constrained_intra=0 / bframes=3 / b_pyramid=2 / b_adapt=1 / b_bias=0 / direct=1 / wpredb=1 / wpredp=2 / keyint=250 / keyint_min=25 / scenecut=40 / intra_refresh=0 / rc_lookahead=40 / rc=2pass / mbtree=1 / bitrate=11421 / ratetol=1.0 / qcomp=0.60 / qpmin=10 / qpmax=51 / qpstep=4 / cplxblur=20.0 / qblur=0.5 / ip_ratio=1.40 / aq=1:0.80
Язык : English
Default : Нет
Forced : Нет
Аудио #1
Идентификатор : 2
Формат : AC-3
Формат/Информация : Audio Coding 3
Расширение режима : CM (complete main)
Параметр Endianness формата : Big
Идентификатор кодека : A_AC3
Продолжительность : 1 ч. 19 м.
Вид битрейта : Постоянный
Битрейт : 192 Кбит/сек
Каналы : 2 канала
Расположение каналов : Front: L R
Частота : 48,0 КГц
Битовая глубина : 16 бит
Метод сжатия : С потерями
Размер потока : 109 Мбайт (2%)
Заголовок : Русский (Игорь Степанов)
Язык : Russian
Default : Да
Forced : Нет
Аудио #2
Идентификатор : 3
Формат : AC-3
Формат/Информация : Audio Coding 3
Расширение режима : CM (complete main)
Параметр Endianness формата : Big
Идентификатор кодека : A_AC3
Продолжительность : 1 ч. 19 м.
Вид битрейта : Постоянный
Битрейт : 448 Кбит/сек
Каналы : 6 каналов
Расположение каналов : Front: L C R, Side: L R, LFE
Частота : 48,0 КГц
Битовая глубина : 16 бит
Метод сжатия : С потерями
Размер потока : 254 Мбайт (4%)
Заголовок : Украинский (5.1)
Язык : Ukrainian
Default : Нет
Forced : Нет
Аудио #3
Идентификатор : 4
Формат : AC-3
Формат/Информация : Audio Coding 3
Расширение режима : CM (complete main)
Параметр Endianness формата : Big
Идентификатор кодека : A_AC3
Продолжительность : 1 ч. 19 м.
Вид битрейта : Постоянный
Битрейт : 448 Кбит/сек
Каналы : 6 каналов
Расположение каналов : Front: L C R, Side: L R, LFE
Частота : 48,0 КГц
Битовая глубина : 16 бит
Метод сжатия : С потерями
Размер потока : 254 Мбайт (4%)
Заголовок : English DD5.1
Язык : English
Default : Нет
Forced : Нет
Текст #1
Идентификатор : 5
Формат : UTF-8
Идентификатор кодека : S_TEXT/UTF8
Идентификатор кодека/Информация : UTF-8 Plain Text
Язык : Russian
Default : Нет
Forced : Нет
Текст #2
Идентификатор : 6
Формат : UTF-8
Идентификатор кодека : S_TEXT/UTF8
Идентификатор кодека/Информация : UTF-8 Plain Text
Заголовок : English
Язык : English
Default : Нет
Forced : Нет

Скриншоты


cd Рип дополнительно залит на ОБЛАКО cd2
[Profile] [PM]
Quick Reply

Name:

            
Heads necessary to send messages to enable JavaScript
Display posts:    
Reply to topic

Current time is: 12-Nov 10:11

All times are UTC + 3



You cannot post new topics in this forum
You can reply to topics in this forum
You cannot edit your posts in this forum
You cannot delete your posts in this forum
You cannot vote in polls in this forum
You cannot attach files in this forum
You cannot download files in this forum