Чудовище из долины Юкка / Тварь с равнины Якка / The Beast Of Yucca Flats (Коулмэн Френсис) [1961 г., ужасы, фантастика, DVDRip] АО (Трамвай-фильм)

Reply to topic
 
Author Message

admin ®

Gender: Male

Longevity: 8 years 3 months

Posts: 4796

Post 06-Aug-2013 16:47

[Quote]

Чудовище из долины Юкка / Тварь с равнины Якка / The Beast Of Yucca Flats
Год выпуска: 1961
Страна: США
Жанр: ужасы, фантастика
Продолжительность: 00:54:07
Перевод: Авторский одноголосый Трамвай-фильм
Режиссер: Коулмэн Френсис
В ролях: Douglas Mellor ... Hank Radcliffe
Barbara Francis ... Lois Radcliffe
Bing Stafford ... Jim Archer
Larry Aten ... Joe Dobson
Linda Bielema ... Wife on Vacation
Ronald Francis ... Randy Radcliffe
Alan Francis ... Art Radcliffe
Anthony Cardoza ... KGB Driver / Helpful Neighbor (as Tony Cardoza)
Bob Labansat ... Javorsky's Bodyguard
Jim Oliphant ... Husband on Vacation
John Morrison ... KGB Passenger
Eric Tomlin ... Driver Run off Road
Jim Miles ... Javorsky's Driver
George Prince ... Man who Reports Murder (as George Principe)
Conrad Brooks ... Man at Airfield
Описание: Выдающийся ученый Иосиф Джаворский бежит из-за "железного занавеса", прихватив с собой секретные материалы советской лунной программы. Его настигают агенты Кремля, в районе равнины Якка, где американские военные испытывают атомные бомбы. Секунда и ударная волна очередной бомбы превращает именитого ученого в кровожадного маньяка жаждущего крови!
Качество: DVDRip
Формат: MKV
Видео: x264, 2527 кбит/с, 720x540, 23.976 к/с
Аудио 1: Русский АО (Трамвай-фильм)(AC3, 2 ch, 224 Кбит/с)
Аудио 2: Английский (AC3, 2 ch, 224 Кбит/с)


Трейлер:

Релиз

Рип с ДВД5 с синемагеддона - kosmoaelita.
Озвучка и перевод - Трамвай-фильм.
Работа со звуком и видео - sasha20072007
Сравнение: kosmoaelita.com vs. Tramvaj
Для Украины: рип дополнительно залит в файлохранилище
Для удаления,добавления и извлечения дорожек в mkv используйте бесплатную портативную mkvmerge GUI 6.2.0
Для присоединения потом дорожек к avi воспользуйтесь VirtualDubMod

Дополнительно

слоган «Commies made him an atomic mutant!»
бюджет $34 000
Also Known As (AKA)
The Atomic Monster: The Beast of Yucca Flats
Brazil A Besta de Yucca Flats
USA (reissue title) Girl Madness
USA (working title)

Знаете ли вы, что...

Изначально фильм был снят БЕЗ звука, его потом озвучили

Рецензия

MediaInfo

Общее
Уникальный идентификатор : 212661102646363889961468224724125455471 (0x9FFD09DF05C593C3B740887D9791946F)
Полное имя : N:\The Beast Of Yucca Flats 1961.x264.DVDRip.Rus.kosmoaelita.mkv
Формат : Matroska
Версия формата : Version 4 / Version 2
Размер файла : 1,13 Гбайт
Продолжительность : 54 м.
Общий поток : 2975 Кбит/сек
Название фильма : The Beast Of Yucca Flats 1961 / rip from NTSC DVD5 by sasha20072007 (kosmoaelita) (2015-08-01), crf=17.39
Дата кодирования : UTC 2015-08-01 17:25:36
Программа кодирования : mkvmerge v6.6.0 ('The Edge Of The In Between') built on Dec 1 2013 17:55:00
Библиотека кодирования : libebml v1.3.0 + libmatroska v1.4.1
Attachements : The Beast Of Yucca Flats 1961.encoding.log
DURATION : 00:54:09.280000000
NUMBER_OF_FRAMES : 101540
NUMBER_OF_BYTES : 90979840
_STATISTICS_WRITING_APP : mkvmerge v7.8.0 ('River Man') 32bit built on Mar 27 2015 16:18:02
_STATISTICS_WRITING_DATE_UTC : 2015-07-31 14:47:36
_STATISTICS_TAGS : BPS DURATION NUMBER_OF_FRAMES NUMBER_OF_BYTES
Видео
Идентификатор : 1
Формат : AVC
Формат/Информация : Advanced Video Codec
Профиль формата : High@L4.1
Параметр CABAC формата : Да
Параметр ReFrames формата : 9 кадров
Идентификатор кодека : V_MPEG4/ISO/AVC
Продолжительность : 54 м.
Битрейт : 2527 Кбит/сек
Ширина : 720 пикселей
Высота : 540 пикселей
Соотношение сторон : 4:3
Режим частоты кадров : Постоянный
Частота кадров : 23,976 кадра/сек
Цветовое пространство : YUV
Субдискретизация насыщенности : 4:2:0
Битовая глубина : 8 бит
Тип развёртки : Прогрессивная
Бит/(Пиксели*Кадры) : 0.271
Размер потока : 956 Мбайт (83%)
Заголовок : kosmoaelita
Библиотека кодирования : x264 core 130 r2273 b3065e6
Настройки программы : cabac=1 / ref=9 / deblock=1:-1:-1 / analyse=0x3:0x133 / me=umh / subme=11 / psy=1 / psy_rd=0.99:0.14 / mixed_ref=1 / me_range=24 / chroma_me=1 / trellis=2 / 8x8dct=1 / cqm=0 / deadzone=21,11 / fast_pskip=1 / chroma_qp_offset=-3 / threads=6 / lookahead_threads=1 / sliced_threads=0 / nr=0 / decimate=1 / interlaced=0 / bluray_compat=0 / constrained_intra=0 / bframes=9 / b_pyramid=2 / b_adapt=2 / b_bias=0 / direct=3 / weightb=1 / open_gop=0 / weightp=2 / keyint=210 / keyint_min=21 / scenecut=40 / intra_refresh=0 / rc_lookahead=80 / rc=2pass / mbtree=1 / bitrate=2527 / ratetol=1.0 / qcomp=0.65 / qpmin=0 / qpmax=69 / qpstep=4 / cplxblur=20.0 / qblur=0.5 / ip_ratio=1.25 / aq=1:0.90
Default : Да
Forced : Нет
Основные цвета : BT.601 NTSC
Характеристики трансфера : BT.601
Коэффициенты матрицы : BT.601
colour_range : Limited
Аудио #1
Идентификатор : 2
Формат : AC-3
Формат/Информация : Audio Coding 3
Расширение режима : CM (complete main)
Параметр Endianness формата : Big
Идентификатор кодека : A_AC3
Продолжительность : 54 м.
Вид битрейта : Постоянный
Битрейт : 224 Кбит/сек
Каналы : 2 канала
Расположение каналов : Front: L R
Частота : 48,0 КГц
Битовая глубина : 16 бит
Метод сжатия : С потерями
Размер потока : 86,8 Мбайт (8%)
Заголовок : Русский АО (Трамвай-фильм)
Язык : Russian
Default : Да
Forced : Нет
Аудио #2
Идентификатор : 3
Формат : AC-3
Формат/Информация : Audio Coding 3
Расширение режима : CM (complete main)
Параметр Endianness формата : Big
Идентификатор кодека : A_AC3
Продолжительность : 54 м.
Вид битрейта : Постоянный
Битрейт : 224 Кбит/сек
Каналы : 1 канал
Расположение каналов : Front: C
Частота : 48,0 КГц
Битовая глубина : 16 бит
Метод сжатия : С потерями
Размер потока : 86,8 Мбайт (8%)
Язык : English
Default : Нет
Forced : Нет
Меню
00:02:54.874 : en:00:02:54.874
00:09:03.643 : en:00:09:03.643
00:20:28.461 : en:00:20:28.461
00:22:56.709 : en:00:22:56.709
00:33:46.725 : en:00:33:46.725
00:41:19.644 : en:00:41:19.644
00:44:43.681 : en:00:44:43.681
00:47:41.592 : en:00:47:41.592
00:54:09.279 : en:00:54:09.279

Скриншоты




cd Рип дополнительно залит на ОБЛАКО cd2


Last edited by admin on 2015-08-01 20:47; edited 6 times in total
[Profile] [PM]

admin ®

Gender: Male

Longevity: 8 years 3 months

Posts: 4796

Post 06-Aug-2013 17:08 (after 21 minute)

[Quote]

Сравнение: kosmoaelita.com vs. Tрамвай
На двдрипе отсутствовала начальная сцена - взята от VHSRipa
[Profile] [PM]

Guest

Gender: Unknown

Post 06-Aug-2013 17:14 (after 6 minutes)

[Quote]

Спасибо. А то я в своё время как скачал трамваевский рип, так и не рискнул с ним работать. смайлик+)
 

Guest

Gender: Unknown

Post 06-Aug-2013 17:37 (after 22 minutes)

[Quote]

голос к Atomic kid
http://yadi.sk/d/vH1IZ9YH7d37I
 

admin ®

Gender: Male

Longevity: 8 years 3 months

Posts: 4796

Post 06-Aug-2013 17:53 (after 16 minutes)

[Quote]

3195Спасибо. А то я в своё время как скачал трамваевский рип, так и не рискнул с ним работать. смайлик+)
Сметана (Недотыкомка здесь) с демонов попросил
[Profile] [PM]

Guest

Gender: Unknown

Post 06-Aug-2013 17:59 (after 6 minutes)

[Quote]

он же порка-дурка, попросил мои стихи почитать, дал ему пачку стихов.
еще я и трамвай спрашиваем что из этого списка переведено
http://yadi.sk/d/n_bR8uco7d5M6
кое что взяли Марфенарусы
 

Guest

Gender: Unknown

Post 06-Aug-2013 23:50 (after 5 hours)

[Quote]

Спасибо за помощь, admin bf
 

admin ®

Gender: Male

Longevity: 8 years 3 months

Posts: 4796

Post 01-Aug-2015 10:10 (after 1 year 11 months)

[Quote]

Перезалито с лучшим качеством видеоряда
[Profile] [PM]

Трамвай-фильм

Gender: Male

Longevity: 6 years 4 months

Posts: 1883

Location: Россия

Post 01-Aug-2015 14:24 (after 4 hours)

[Quote]

Мужик исполняющий роль рейнджера (ветерана Кореи - уже смешно глядя на него), был родичем продюсера и сыграл только в этом фильме, причем роль надо сказать далеко не Гамлета.
кстати все герои стоят спиной когда говорят, и вообще говорят там очень мало. Это фактически эталон малобюджетки (и да, фильм окупился в прокате)
[Profile] [PM]

admin ®

Gender: Male

Longevity: 8 years 3 months

Posts: 4796

Post 01-Aug-2015 14:41 (after 16 minutes)

[Quote]

Не спиной. Єто повторная озвучка, судя. по иногда не совпадению губ при разговоре.
[Profile] [PM]
Display posts:    
Reply to topic

Current time is: 05-Dec 09:06

All times are UTC + 3



You cannot post new topics in this forum
You cannot reply to topics in this forum
You cannot edit your posts in this forum
You cannot delete your posts in this forum
You cannot vote in polls in this forum
You cannot attach files in this forum
You cannot download files in this forum