Калифорнийские куколки / ...все куколки / All the Marbles (Роберт Олдрич / Robert Aldrich) [1981, США, Боевик, драма, мелодрама, комедия, DVDRip-AVC] AVO Андрей Дольский Original Eng

Ответить на тему
Статистика раздачи
Размер:  2,08 GB   |    Зарегистрирован:  5 лет   |    Скачан:  1 раз

Полного источника не было: 2 года 7 месяцев

 
   
 
 
 
Автор Сообщение

admin ®

Пол: Мужской

Стаж: 5 лет

Сообщений: 4750

Откуда: Україна

Создавать темы 06-Сен-2012 07:09

[Цитировать]

Калифорнийские куколки / ...все куколки / All the Marbles
Страна: США, Metro-Goldwyn-Mayer (MGM)
Жанр: Боевик, драма, мелодрама, комедия
Год выпуска: 1981
Продолжительность: 01:53:01
Перевод: Авторский (одноголосый закадровый) - Андрей Дольский
Cубтитры: нет
Оригинальная аудиодорожка: английский
Режиссер: Роберт Олдрич / Robert Aldrich
В ролях: Питер Фальк, Вики Фредерик, Лорен Ландон, Берт Янг, Трэси Рид, Урсалина Брайант, Клодетт Невинс, Ричард Джекел, Джон Хэнкок, Ленни Монтан
Описание: Гарри - менеджер "Калифорнийских куколок", женской команда по рестлингу, которая без устали колесит по всей Америке. У Гарри складываются романтические отношения с одной из его подопечных. Со временем дела команды начинают идти все хуже, особенно после того, как Гарри соглашается на то, чтобы его девушки участвовали в "борьбе в грязи"...
Качество видео: DVDRip-AVC
Формат видео: MKV
Видео: x264, 2241 кб/с, 720x480@853x480, 23.976 к/с, 2pass, crf ~ 19
Аудио 1: Русский (AC3, 2кн, 192 Кбит/с)
Аудио 2: Английский (AC3, 2 кн, 192 Кбит/с)

Релиз

Рип с ДВД5 с юзенета и монтаж - мои (sasha20072007)
Озвучка: Андрей Дольский
Релиз русской дорожки - Neon
Работа со звуком - kruger
Лог кодирования и постеры - в контейнере
Сравнение с оригиналом DVD5

Дополнительно

Другие названия:
California Dolls Finland / Italy
The California Dolls Australia / USA (reissue title)
...And All the Marbles USA (working title)
...minden márvány Hungary (imdb display title)
As Bonecas da Califórnia Portugal
California Bebekleri Turkey (video title) (Turkish title)
Chicas con gancho Spain
Damy na ringu Poland
Deux filles au tapis France
Garotas Duras na Queda Brazil
Harry läßt die Puppen tanzen West Germany
Kalifornian tytöt Finland
Kesse Bienen auf der Matte West Germany
Knock-out pigerne Denmark
Knockout-brudarna Sweden (premiere title)
Las muñecas de California Argentina
Ned i madrassen, piger Denmark (imdb display title)
Oi sexovomves tou ring Greece (transliterated ISO-LATIN-1 title)
Слоган «The California Dolls and their best friend Harry...Together they're going for...All The Marbles»
Для удаления и добавления дорожек в mkv используйте бесплатную mkvmerge GUI 5.70

MediaInfo

Общее
Уникальный идентификатор : 236428952283772513998005503525410608345 (0xB1DE8F551AC17FE29A305DD3079494D9)
Полное имя : F:\Калифорнийские куколки 1981.x264.DVDRip(AVC).sasha20072007.mkv
Формат : Matroska
Версия формата : Version 2
Размер файла : 2,08 Гбайт
Продолжительность : 1 ч. 53 м.
Общий поток : 2630 Кбит/сек
Название фильма : ALL_THE_MARBLES / 1981 / rip by sasha20072007 (2012-08-28)
Дата кодирования : UTC 2012-08-28 18:08:49
Программа кодирования : mkvmerge v5.7.0 ('The Whirlwind') built on Jul 30 2012 20:20:16
Библиотека кодирования : libebml v1.2.3 + libmatroska v1.3.0
Attachment : Yes / Yes / Yes / Yes
Видео
Идентификатор : 1
Формат : AVC
Формат/Информация : Advanced Video Codec
Профиль формата : High@L4.1
Параметр CABAC формата : Да
Параметр ReFrames формата : 8 кадров
Идентификатор кодека : V_MPEG4/ISO/AVC
Продолжительность : 1 ч. 53 м.
Битрейт : 2241 Кбит/сек
Ширина : 720 пикселей
Высота : 480 пикселей
Соотношение сторон : 16:9
Соотношение сторон в оригинале : 16:9
Частота кадров : 23,976 кадра/сек
Стандарт вещания : NTSC
Цветовое пространство : YUV
Субдискретизация насыщенности : 4:2:0
Битовая глубина : 8 бит
Тип развёртки : Прогрессивная
Бит/(Пиксели*Кадры) : 0.270
Размер потока : 1,73 Гбайт (83%)
Библиотека кодирования : x264 core 125 r2200 999b753
Настройки программы : cabac=1 / ref=8 / deblock=1:-3:-2 / analyse=0x3:0x133 / me=umh / subme=10 / psy=1 / psy_rd=1.00:0.17 / mixed_ref=1 / me_range=24 / chroma_me=1 / trellis=2 / 8x8dct=1 / cqm=0 / deadzone=21,11 / fast_pskip=1 / chroma_qp_offset=-3 / threads=6 / lookahead_threads=1 / sliced_threads=0 / nr=0 / decimate=1 / interlaced=0 / bluray_compat=0 / constrained_intra=0 / bframes=10 / b_pyramid=2 / b_adapt=2 / b_bias=0 / direct=3 / weightb=1 / open_gop=0 / weightp=2 / keyint=220 / keyint_min=22 / scenecut=40 / intra_refresh=0 / rc_lookahead=60 / rc=2pass / mbtree=1 / bitrate=2241 / ratetol=1.0 / qcomp=0.60 / qpmin=0 / qpmax=69 / qpstep=4 / cplxblur=20.0 / qblur=0.5 / vbv_maxrate=17500 / vbv_bufsize=14000 / nal_hrd=none / ip_ratio=1.29 / aq=1:0.80
Default : Да
Forced : Нет
Основные цвета : BT.601-6 525, BT.1358 525, BT.1700 NTSC, SMPTE 170M
Характеристики трансфера : BT.601-6 525, BT.601-6 625, BT.1358 525, BT.1358 625, BT.1700 NTSC, SMPTE 170M
Коэффициенты матрицы : BT.601-6 525, BT.1358 525, BT.1700 NTSC, SMPTE 170M
Аудио #1
Идентификатор : 2
Формат : AC-3
Формат/Информация : Audio Coding 3
Расширение режима : CM (complete main)
Параметр Endianness формата : Big
Идентификатор кодека : A_AC3
Продолжительность : 1 ч. 53 м.
Вид битрейта : Постоянный
Битрейт : 192 Кбит/сек
Каналы : 2 канала
Расположение каналов : Front: L R
Частота : 48,0 КГц
Битовая глубина : 16 бит
Метод сжатия : С потерями
Размер потока : 155 Мбайт (7%)
Язык : English
Default : Нет
Forced : Нет
Аудио #2
Идентификатор : 3
Формат : AC-3
Формат/Информация : Audio Coding 3
Расширение режима : CM (complete main)
Параметр Endianness формата : Big
Идентификатор кодека : A_AC3
Продолжительность : 1 ч. 53 м.
Вид битрейта : Постоянный
Битрейт : 192 Кбит/сек
Каналы : 2 канала
Расположение каналов : Front: L R
Частота : 48,0 КГц
Битовая глубина : 16 бит
Метод сжатия : С потерями
Размер потока : 155 Мбайт (7%)
Заголовок : Русский (А.Дольский)
Язык : Russian
Default : Да
Forced : Нет
Меню
00:00:00.000 : :Chapter 01
00:10:00.500 : :Chapter 02
00:20:00.000 : :Chapter 03
00:30:00.000 : :Chapter 04
00:40:00.500 : :Chapter 05
00:50:00.000 : :Chapter 06
01:00:00.500 : :Chapter 07
01:10:00.000 : :Chapter 08
01:20:00.000 : :Chapter 09
01:30:00.500 : :Chapter 10
01:40:00.000 : :Chapter 11
01:50:00.500 : :Chapter 12

Скриншоты



Калифорнийские куколки 1981.x264.DVDRip(AVC).sasha20072007.mkv.1.torrent
 ЗОЛОТАЯ РАЗДАЧА! СКАЧАННОЕ НЕ ЗАСЧИТЫВАЕТСЯ! 
Торрент: Зарегистрирован [ 2012-09-06 07:13 ]

Скачать .torrent

Скачать

11 KB

Статус: проверено
Скачан: 1 раз
Размер: 2,08 GB
 


Последний раз редактировалось: admin (2012-09-06 07:13), всего редактировалось 1 раз
[Профиль] [ЛС]
Быстрый ответ

Имя:

            
Для отправки сообщений необходимо включить JavaScript
Показать сообщения:    
Ответить на тему

Текущее время: 23-Сен 11:03

Часовой пояс: UTC + 3:30



Вы не можете начинать темы
Вы можете отвечать на сообщения
Вы не можете редактировать свои сообщения
Вы не можете удалять свои сообщения
Вы не можете голосовать в опросах
Вы не можете прикреплять файлы к сообщениям
Вы можете скачивать файлы