Угроза из Космоса / Menace from Outer Space (Rocky Jones e4-6) (Холлингсворт Морс / Hollingsworth Morse) [1956 г., фантастика, TVRip] АО (Трамвай-фильм)

Reply to topic
 
Author Message

Guest ®

Gender: Unknown

Post 28-Jul-2013 11:02

[Quote]

Угроза из Космоса / Menace from Outer Space
Название: Угроза из Космоса
Оригинальное название: Menace from Outer Space
Год выхода: 1956
Жанр: фантастика
Режиссер: Холлингсворт Морс /
В ролях: Ричард Крейн, Скоти Бэкет, Сали Мэнсфайлед, Роберт Лиден, Марси Касс, Леонард Пэнн
О фильме:
Вторая полнометражка о Рокки Джонсе отважном космическом рейнджере. На этот раз ему предстоит отправиться на Форнакс, загадочную луну Юпитера. что бы выяснить с неё обстреливает Землю Кристальными ракетами
Выпущено: USA, Official Films, Roland Reed Productions, Space Ranger Enterprises
Продолжительность: 01:15:39
Перевод: Авторский (Одноголосый) Трамвай-фильм

Качество: TVRip
Формат: MKV
Видео кодек: x264
Аудио кодек: MP3
Видео: Xvid, 696x478, 29.97fps, 1644 Кбит/с
Аудио 1: AC3, 48000Hz, stereo, 192 Кбит/с
Аудио 2: AC3, 48000Hz, stereo, 160 Кбит/с

MediaInfo

Общее
Уникальный идентификатор : 215571917127828762346470805690189365391 (0xA22DA41AF893E9F9A87E1DB1DB60408F)
Полное имя : F:\Menace from Outer Space - Rocky Jones, Space Ranger 1956.x264.DVDRip.Rus.kosmoaelita.mkv
Формат : Matroska
Версия формата : Version 4 / Version 2
Размер файла : 1,08 Гбайт
Продолжительность : 1 ч. 15 м.
Общий поток : 2036 Кбит/сек
Название фильма : Угроза из Космоса / Menace from Outer Space / 1956 / kosmoaelita / SIFIMEGAPACKDISC04B
Дата кодирования : UTC 2019-01-24 01:49:06
Программа кодирования : mkvmerge v6.6.0 ('The Edge Of The In Between') built on Dec 1 2013 17:55:00
Библиотека кодирования : libebml v1.3.0 + libmatroska v1.4.1
Attachments : poster menace.jpg
Видео
Идентификатор : 1
Формат : AVC
Формат/Информация : Advanced Video Codec
Профиль формата : Main@L4
Параметр CABAC формата : Да
Параметр ReFrames формата : 4 кадра
Идентификатор кодека : V_MPEG4/ISO/AVC
Продолжительность : 1 ч. 15 м.
Битрейт : 1644 Кбит/сек
Ширина : 696 пикселей
Высота : 478 пикселей
Соотношение сторон : 1,293
Соотношение сторон в оригинале : 1,294
Режим частоты кадров : Постоянный
Частота кадров : 29,970 (30000/1001) кадров/сек
Цветовое пространство : YUV
Субдискретизация насыщенности : 4:2:0
Битовая глубина : 8 бит
Тип развёртки : Прогрессивная
Бит/(Пиксели*Кадры) : 0.165
Размер потока : 889 Мбайт (81%)
Заголовок : http://kosmoaelita.com/viewtopic.php?t=858
Библиотека кодирования : x264 core 142 r2389 956c8d8
Настройки программы : cabac=1 / ref=1 / deblock=1:0:0 / analyse=0x1:0x111 / me=hex / subme=2 / psy=1 / psy_rd=1.00:0.00 / mixed_ref=0 / me_range=16 / chroma_me=1 / trellis=0 / 8x8dct=0 / cqm=0 / deadzone=21,11 / fast_pskip=1 / chroma_qp_offset=0 / threads=6 / lookahead_threads=2 / sliced_threads=0 / nr=0 / decimate=1 / interlaced=0 / bluray_compat=0 / constrained_intra=0 / bframes=3 / b_pyramid=2 / b_adapt=1 / b_bias=0 / direct=1 / weightb=1 / open_gop=0 / weightp=1 / keyint=300 / keyint_min=30 / scenecut=40 / intra_refresh=0 / rc_lookahead=10 / rc=crf / mbtree=1 / crf=20.0 / qcomp=0.60 / qpmin=0 / qpmax=69 / qpstep=4 / vbv_maxrate=20000 / vbv_bufsize=25000 / crf_max=0.0 / nal_hrd=none / filler=0 / ip_ratio=1.40 / aq=1:1.00
Язык : English
Default : Да
Forced : Нет
Цветовой диапазон : Limited
Основные цвета : BT.601 NTSC
Характеристики трансфера : BT.709
Коэффициенты матрицы : BT.601
Аудио #1
Идентификатор : 2
Формат : AC-3
Формат/Информация : Audio Coding 3
Расширение режима : CM (complete main)
Параметр Endianness формата : Big
Идентификатор кодека : A_AC3
Продолжительность : 1 ч. 15 м.
Вид битрейта : Постоянный
Битрейт : 192 Кбит/сек
Каналы : 2 канала
Расположение каналов : Front: L R
Частота : 48,0 КГц
Частота кадров : 31,250 кадров/сек (1536 spf)
Метод сжатия : С потерями
Размер потока : 104 Мбайт (9%)
Заголовок : Русский АО (Трамвай-фильм)
Язык : Russian
Default : Да
Forced : Нет
Аудио #2
Идентификатор : 3
Формат : AC-3
Формат/Информация : Audio Coding 3
Расширение режима : CM (complete main)
Параметр Endianness формата : Big
Идентификатор кодека : A_AC3
Продолжительность : 1 ч. 15 м.
Вид битрейта : Постоянный
Битрейт : 160 Кбит/сек
Каналы : 2 канала
Расположение каналов : Front: L R
Частота : 48,0 КГц
Частота кадров : 31,250 кадров/сек (1536 spf)
Метод сжатия : С потерями
Размер потока : 86,5 Мбайт (8%)
Язык : English
Default : Нет
Forced : Нет
Меню
00:00:00.000 : en:Chapter 1
00:16:34.693 : en:Chapter 2
00:38:14.725 : en:Chapter 3
00:52:59.876 : en:Chapter 4

Скриншоты



Скринлист

cd Рип дополнительно залит на ОБЛАКО cd2
 
Display posts:    
Reply to topic

Current time is: 07-Apr 09:32

All times are UTC + 3



You cannot post new topics in this forum
You cannot reply to topics in this forum
You cannot edit your posts in this forum
You cannot delete your posts in this forum
You cannot vote in polls in this forum
You cannot attach files in this forum
You cannot download files in this forum