Парень с того света / My Boyfriend's Back (Боб Бэлабан / Bob Balaban) [1993, США, Ужасы, фэнтези, мелодрама, комедия, DVDRip-AVC] AVO (А.Дольский) + Sub (Eng) + Original (Eng)

Reply to topic
 
Author Message

admin ®

Gender: Male

Longevity: 7 years

Posts: 4725

Location: Україна

Post 06-Sep-2012 05:59

[Quote]

Парень с того света / My Boyfriend's Back
Страна: США
Жанр: Ужасы, фэнтези, мелодрама, комедия
Год выпуска: 1993
Продолжительность: 01:24:31
Перевод: Авторский (одноголосый закадровый) А.Дольский
Cубтитры: английские
Оригинальная аудиодорожка: английский
Режиссер: Боб Бэлабан / Bob Balaban
В ролях: Эндрю Лоури, Трейси Линд, Дэнни Зорн, Эдвард Херрманн, Мэри Бет Хёрт, Джей О. Сэндерс, Либби Виллари, Мэттью Фокс, Филип Сеймур Хоффман, Пол Дули
Описание: Как порою трудно завоевать сердце девушки! И особенно нелегко, если ты… покойник! Школьник Джонни Дингл очень хотел уговорить прелестную Мисси МакКул пойти на выпускной бал с ним, но трагически погиб на подступах к этому великому событию. Однако, как ни странно, сей печальный инцидент не помешал Джонни попытаться завершить начатое: упорный ухажер восстал из мертвых с твердым намерением все-таки потанцевать с Мисси, правда, прежде придется решить ряд насущных для всякого начинающего зомби проблем…
Качество видео: DVDRip-AVC
Формат видео: MKV
Видео: x264, 1917 кб/с, 720x460@837x460, 23.976 к/с, crf=19
Аудио 1: Русский (AC3, 2кн, 192 Кбит/с)
Аудио 2: Английский (AC3, 2 кн, 192 Кбит/с)
Субтитры 1: Английские, VobSub
Субтитры 2: Английские, srt

Релиз

Релиз русской дорожки на синемаскопе: Neon
Озвучка: А.Дольский
Рип с ДВД5 с синемагеддона и монтаж - мои (sasha20072007)
Лог кодирования и постеры - в контейнере

Дополнительно

Другие названия:
¡Qué muerto de novio! Spain (imdb display title)
A barátom a halálom Hungary (imdb display title)
Fantasma per amore Italy (TV title)
Johnny Zombie USA (working title)
Mój chlopak zombie Poland (imdb display title)
Mein Freund, der Zombie Germany
Namorado Gelado, Coração Quente! Brazil
Namorado Precisa-se Portugal
Suuteleva Zombie Finland
Слоган «Johnny would give an arm and a leg to date Missy. Well, maybe just an arm.»
Для удаления и добавления дорожек в mkv используйте бесплатную mkvmerge GUI 5.70

MediaInfo

Общее
Уникальный идентификатор : 254794978144188152837123639015226200458 (0xBFAFBA51AC68DAD6B9C3807733E3D18A)
Полное имя : F:\Paren.s.togo.sveta.1993.x264.DVDRip.(AVC).sasha20072007.mkv
Формат : Matroska
Версия формата : Version 2
Размер файла : 1,36 Гбайт
Продолжительность : 1 ч. 24 м.
Общий поток : 2309 Кбит/сек
Название фильма : My Boyfriend's Back / 1993 / Парень с того света / rip by sasha20072007 (2012-08-06)
Дата кодирования : UTC 2012-08-06 19:44:07
Программа кодирования : mkvmerge v5.7.0 ('The Whirlwind') built on Jul 30 2012 20:20:16
Библиотека кодирования : libebml v1.2.3 + libmatroska v1.3.0
Attachment : Yes / Yes / Yes
Видео
Идентификатор : 1
Формат : AVC
Формат/Информация : Advanced Video Codec
Профиль формата : High@L4.1
Параметр CABAC формата : Да
Параметр ReFrames формата : 8 кадров
Идентификатор кодека : V_MPEG4/ISO/AVC
Продолжительность : 1 ч. 24 м.
Битрейт : 1917 Кбит/сек
Ширина : 720 пикселей
Высота : 460 пикселей
Соотношение сторон : 1,85:1
Соотношение сторон в оригинале : 16:9
Частота кадров : 23,976 кадра/сек
Цветовое пространство : YUV
Субдискретизация насыщенности : 4:2:0
Битовая глубина : 8 бит
Тип развёртки : Прогрессивная
Бит/(Пиксели*Кадры) : 0.241
Размер потока : 1,11 Гбайт (81%)
Библиотека кодирования : x264 core 125 r2200 999b753
Настройки программы : cabac=1 / ref=8 / deblock=1:-2:-1 / analyse=0x3:0x133 / me=umh / subme=11 / psy=1 / psy_rd=1.00:0.20 / mixed_ref=1 / me_range=24 / chroma_me=1 / trellis=2 / 8x8dct=1 / cqm=0 / deadzone=21,11 / fast_pskip=1 / chroma_qp_offset=-3 / threads=6 / lookahead_threads=1 / sliced_threads=0 / nr=0 / decimate=1 / interlaced=0 / bluray_compat=0 / constrained_intra=0 / bframes=10 / b_pyramid=2 / b_adapt=2 / b_bias=0 / direct=3 / weightb=1 / open_gop=0 / weightp=2 / keyint=220 / keyint_min=22 / scenecut=40 / intra_refresh=0 / rc_lookahead=60 / rc=2pass / mbtree=1 / bitrate=1917 / ratetol=1.0 / qcomp=0.60 / qpmin=0 / qpmax=69 / qpstep=4 / cplxblur=20.0 / qblur=0.5 / vbv_maxrate=17500 / vbv_bufsize=14000 / nal_hrd=none / ip_ratio=1.30 / aq=1:0.80
Default : Да
Forced : Нет
Основные цвета : BT.470-6 System B, BT.470-6 System G, BT.601-6 625, BT.1358 625, BT.1700 625 PAL, BT.1700 625 SECAM
Характеристики трансфера : BT.470-6 System B, BT.470-6 System G
Коэффициенты матрицы : BT.470-6 System B, BT.470-6 System G, BT.601-6 625, BT.1358 625, BT.1700 625 PAL, BT.1700 625 SECAM, IEC 61966-2-4 601
Аудио #1
Идентификатор : 2
Формат : AC-3
Формат/Информация : Audio Coding 3
Расширение режима : CM (complete main)
Параметр Endianness формата : Big
Идентификатор кодека : A_AC3
Продолжительность : 1 ч. 24 м.
Вид битрейта : Постоянный
Битрейт : 192 Кбит/сек
Каналы : 2 канала
Расположение каналов : Front: L R
Частота : 48,0 КГц
Битовая глубина : 16 бит
Метод сжатия : С потерями
Размер потока : 116 Мбайт (8%)
Заголовок : Русский (А.Дольский)
Язык : Russian
Default : Да
Forced : Нет
Аудио #2
Идентификатор : 3
Формат : AC-3
Формат/Информация : Audio Coding 3
Расширение режима : CM (complete main)
Параметр Endianness формата : Big
Идентификатор кодека : A_AC3
Продолжительность : 1 ч. 24 м.
Вид битрейта : Постоянный
Битрейт : 192 Кбит/сек
Каналы : 2 канала
Расположение каналов : Front: L R
Частота : 48,0 КГц
Битовая глубина : 16 бит
Метод сжатия : С потерями
Размер потока : 116 Мбайт (8%)
Язык : English
Default : Нет
Forced : Нет
Текст #1
Идентификатор : 4
Формат : VobSub
Идентификатор кодека : S_VOBSUB
Идентификатор кодека/Информация : The same subtitle format used on DVDs
Язык : English
Default : Нет
Forced : Нет
Текст #2
Идентификатор : 5
Формат : UTF-8
Идентификатор кодека : S_TEXT/UTF8
Идентификатор кодека/Информация : UTF-8 Plain Text
Язык : English
Default : Нет
Forced : Нет
Меню
00:00:00.000 : :Chapter 01
00:14:49.868 : :Chapter 02
00:28:19.702 : :Chapter 03
00:34:22.202 : :Chapter 04
00:42:23.702 : :Chapter 05
00:52:45.137 : :Chapter 06
00:58:33.137 : :Chapter 07
01:05:27.637 : :Chapter 08
01:08:11.637 : :Chapter 09
01:10:28.637 : :Chapter 10
01:13:38.137 : :Chapter 11
01:21:22.738 : :Chapter 12
01:24:25.305 : :Chapter 13

Скриншоты


Скринлист

cd Рип дополнительно залит на ОБЛАКО cd2
[Profile] [PM]
Display posts:    
Reply to topic

Current time is: 22-Sep 08:56

All times are UTC + 3



You cannot post new topics in this forum
You cannot reply to topics in this forum
You cannot edit your posts in this forum
You cannot delete your posts in this forum
You cannot vote in polls in this forum
You cannot attach files in this forum
You cannot download files in this forum