Земные узы / Earthbound (Джеймс Л. Конуэй / James L. Conway) [1981 г., фантастика, комедия, семейный, VHSRip] ПД (СВ-Кадр)

Reply to topic
DL-List and Torrent activity
Size:  955 MB   |    Registered:  6 years 7 months   |    Completed:  0 times

Seeder not seen: 6 years 2 months

 
   
 
 
 
Author Message

admin ®

Gender: Male

Longevity: 7 years 5 months

Posts: 4813

Post 12-Jul-2013 00:53

[Quote]

Земные узы / Earthbound
Год выпуска: 1981
Страна: США
Жанр: фантастика, комедия, семейный
Продолжительность: 01:38:31
Перевод: Профессиональный (двухголосый) СВ-Кадр
Режиссер: Джеймс Л. Конуэй / James L. Conway
В ролях:
Burl Ives ... Ned Anderson
Christopher Connelly ... Zef
Meredith MacRae ... Lara
Joseph Campanella ... Conrad
Marc Gilpin ... Dalem
Todd Porter ... Tommy Anderson
Mindy Dow ... Rosie
Elissa Leeds ... Teva
Peter Isacksen ... Willy
John Schuck ... Sheriff De Rita
Joey Forman ... Madden
Stuart Pankin ... Sweeney
H.M. Wynant ... Dave
Jesse Bennett ... Gold Rush man #2
Daryl Bingham ... Pudge
Описание: Семья пришельцев, корабль которых повреждён в космической буре, терпит крушение на Земле. Преследуемые федеральными агентами, они встречают мальчика и его дедушку, которые оказывают поддержку пришельцам, нуждающимся в материале для ремонта инопланетного судна, чтобы возвратиться на родную планету
Качество: TV-VHSRip
Формат: AVI
Видео: xviD, 1217 кбит/с, 720x544, 25 к/с
Аудио: Русский (MP3, 2 ch, 128 Кбит/с)


Релиз

Рип найден на ex.ua
Озвучен фирмой СВ-Кадр на тон-студии Мосфильм по заказу Московской Независимой Вещательной корпорации в 1998 году
Для Украины: рип дополнительно залит в файлохранилище
Для удаления,добавления и извлечения дорожек в mkv используйте бесплатную портативную mkvmerge GUI 6.2.0
Для присоединения потом дорожек к avi воспользуйтесь VirtualDubMod

Дополнительно

рейтинг MPAA рекомендуется присутствие родителей
слоган «A very spacey comedy»
Also Known As (AKA)
Finland Pakkolasku avaruudesta
Italy Prigionieri della Terra
Norway (video box title) Med kurs mot jorden
West Germany Endstation Planet Erde

Отзывы

MediaInfo

Общее
Полное имя : F:\Earthbound_1981_TVRip_rus.avi
Формат : AVI
Формат/Информация : Audio Video Interleave
Размер файла : 955 Мбайт
Продолжительность : 1 ч. 38 м.
Общий поток : 1355 Кбит/сек
Программа кодирования : VirtualDubMod 1.5.4.1 (build 2178/release)
Библиотека кодирования : VirtualDub build 32817/release
Видео
Идентификатор : 0
Формат : MPEG-4 Visual
Профиль формата : Advanced Simple@L5
Параметр BVOP формата : 1
Параметр QPel формата : Нет
Параметр GMC формата : Без точки перехода
Параметр матрицы формата : Выборочная
Идентификатор кодека : XVID
Идентификатор кодека/Подсказка : XviD
Продолжительность : 1 ч. 38 м.
Битрейт : 1217 Кбит/сек
Ширина : 720 пикселей
Высота : 544 пикселя
Соотношение сторон : 4:3
Частота кадров : 25,000 кадров/сек
Цветовое пространство : YUV
Субдискретизация насыщенности : 4:2:0
Битовая глубина : 8 бит
Тип развёртки : Прогрессивная
Метод сжатия : С потерями
Бит/(Пиксели*Кадры) : 0.124
Размер потока : 857 Мбайт (90%)
Библиотека кодирования : XviD 1.2.1 (UTC 2008-12-04)
Аудио
Идентификатор : 1
Формат : MPEG Audio
Версия формата : Version 1
Профиль формата : Layer 3
Режим : Joint stereo
Расширение режима : MS Stereo
Идентификатор кодека : 55
Идентификатор кодека/Подсказка : MP3
Продолжительность : 1 ч. 38 м.
Вид битрейта : Постоянный
Битрейт : 128 Кбит/сек
Каналы : 2 канала
Частота : 48,0 КГц
Метод сжатия : С потерями
Размер потока : 90,2 Мбайт (9%)
Выравнивание : Соединение по промежуткам
Продолжительность промежутка : 40 мс. (1,00 видеокадр)
Время предзагрузки промежутка : 504 мс.
Библиотека кодирования : LAME3.98.2ЄЄЄЄЄЄЄЄЄЄ
Earthbound_1981_TVRip_rus.avi.torrent
 GOLD TORRENT! DOWNLOAD TRAFFIC DOES NOT CONSIDER! 
Torrent: Registered [ 2013-07-12 00:53 ]

Download .torrent

Download

38 KB

Status: checked
Completed: 0 times
Size: 955 MB
 
[Profile] [PM]

Guest

Gender: Unknown

Post 12-Jul-2013 07:36 (after 6 hours)

[Quote]

http://forum.tntvillage.scambioetico.org/index.php?showtopic=220220
 
Display posts:    
Reply to topic

Current time is: 26-Feb 12:05

All times are UTC + 3



You cannot post new topics in this forum
You cannot reply to topics in this forum
You cannot edit your posts in this forum
You cannot delete your posts in this forum
You cannot vote in polls in this forum
You cannot attach files in this forum
You can download files in this forum