Обратный билет / Bilet powrotny (Эва Петельска / Ewa Petelska, Чеслав Петельский / Czesław Petelski) [1978, Польша, Драма, TVRip] СТ (kosmoaelita)

Reply to topic
DL-List and Torrent activity
Size:  670 MB   |    Registered:  9 years 1 month   |    Completed:  2 times

Seeder not seen: 1 year 8 months

 
   
 
 
 
Author Message

admin ®

Gender: Male

Longevity: 9 years 1 month

Posts: 4771

Post 06-Sep-2012 02:35

[Quote]

Обратный билет / Bilet powrotny
Страна: Польша
Жанр: Драма
Год выпуска: 1978
Продолжительность: 01:45:28
Перевод: Субтитры kosmoaelita
Режиссер: Эва Петельска / Ewa Petelska, Чеслав Петельский / Czesław Petelski
В ролях: Януш Анджеевски, Хенрик Бонк, Лешек Хердеген, Зофия Сареток, Анна Сенюк
Описание: Антонина, молодая женщина, уезжает в Канаду, чтобы на заработанные там деньги построить в городе дом для сына.Отбрасывает предложение о женитьбе со стороны дяди и выходит замуж за Пьера, соседского фермера.Восстанавливает его запущенное хозяйство, но их совместная жизнь складывается, как нельзя хуже.Когда она решает выслать сыну деньги, Пьер впадает в бешенство - посягает на жизнь Антонины и убивает себя.Полупарализованная Антонина возвращается в Польшу.В новом прекрасном районе частных домов она находит сына, но оказывается, что деньги,которые присылала его мать он потратил впустую и дом не построил...
Главная награда фестиваля польских художественных фильмов "Гданьск-78".

Качество видео: TVRip
Формат видео: MKV
Видео: DIVX, 640x464, 25к/с, 647 кбит/с
Аудио: МР3, 44,1 КГц, 112 Кбит/сек, 2 канала
Субтитры: Русские (kosmoaelita)[/url]), SRT, отключаемые
Формат субтитров: softsub (SRT)
Работа над релизом:
Перевод на слух с польского - kosmoaelita



С русскими субтитрами:

Дополнительно

Знаете ли вы, что...

Отзывы

Рецензия

MediaInfo

Общее
Уникальный идентификатор : 183003262043846798725297231943052762064 (0x89AD256F44D76F2EAA9E1B4628831BD0)
Полное имя : Q:\Bilet powrotny 1978.DivX.TVRip.kosmoaelita.mkv
Формат : Matroska
Версия формата : Version 4
Размер файла : 671 Мбайт
Продолжительность : 1 ч. 45 м.
Общий поток : 890 Кбит/сек
Название фильма : Обратній билет Bilet powrotny 1978 kosmoaelita
Дата кодирования : UTC 2021-10-10 02:49:34
Программа кодирования : mkvmerge v6.6.0 ('The Edge Of The In Between') built on Dec 1 2013 17:55:00
Библиотека кодирования : libebml v1.3.0 + libmatroska v1.4.1
Видео
Идентификатор : 1
Формат : MPEG-4 Visual
Настройки формата : BVOP
Параметр BVOP формата : Да
Параметр QPel формата : Нет
Параметр GMC формата : Без точки перехода
Параметр матрицы формата : Default (H.263)
Идентификатор кодека : V_MS/VFW/FOURCC / DIVX
Идентификатор кодека/Информация : Project Mayo
Идентификатор кодека/Подсказка : DivX 4
Продолжительность : 1 ч. 45 м.
Битрейт : 648 Кбит/сек
Ширина : 640 пикселей
Высота : 464 пикселя
Соотношение сторон : 1,379
Режим частоты кадров : Постоянный
Частота кадров : 25,000 кадров/сек
Цветовое пространство : YUV
Субдискретизация насыщенности : 4:2:0
Битовая глубина : 8 бит
Тип развёртки : Прогрессивная
Метод сжатия : С потерями
Бит/(Пиксели*Кадры) : 0.087
Размер потока : 488 Мбайт (73%)
Заголовок : http://kosmoaelita.com/viewtopic.php?t=83
Язык : Polish
Default : Да
Forced : Нет
Аудио #1
Идентификатор : 2
Формат : MPEG Audio
Версия формата : Version 1
Профиль формата : Layer 3
Идентификатор кодека : A_MPEG/L3
Идентификатор кодека/Подсказка : MP3
Продолжительность : 1 ч. 45 м.
Вид битрейта : Постоянный
Битрейт : 112 Кбит/сек
Каналы : 2 канала
Частота : 44,1 КГц
Метод сжатия : С потерями
Размер потока : 84,4 Мбайт (13%)
Заголовок : Пол голос
Язык : Polish
Default : Да
Forced : Нет
Аудио #2
Идентификатор : 3
Формат : MPEG Audio
Версия формата : Version 1
Профиль формата : Layer 3
Идентификатор кодека : A_MPEG/L3
Идентификатор кодека/Подсказка : MP3
Продолжительность : 1 ч. 45 м.
Вид битрейта : Постоянный
Битрейт : 112 Кбит/сек
Каналы : 2 канала
Частота : 44,1 КГц
Метод сжатия : С потерями
Размер потока : 84,4 Мбайт (13%)
Язык : Polish
Default : Нет
Forced : Нет
Текст #1
Идентификатор : 4
Формат : UTF-8
Идентификатор кодека : S_TEXT/UTF8
Идентификатор кодека/Информация : UTF-8 Plain Text
Заголовок : Русский (kosmoaelita), srt октябрь 2011г
Язык : Russian
Default : Да
Forced : Нет
Текст #2
Идентификатор : 5
Формат : VobSub
Режим смешивания : zlib
Идентификатор кодека : S_VOBSUB
Идентификатор кодека/Информация : Picture based subtitle format used on DVDs
Заголовок : Русский (kosmoaelita), VobSub
Язык : Russian
Default : Нет
Forced : Нет
Язык : Russian

Скриншоты

Скринлист

cd Рип дополнительно залит на mail.ru cd2
Obratnyj.Bilet.1978.DivX.TVRip.Reliz.Kinozal.TV.mkv.2.torrent
 GOLD TORRENT! DOWNLOAD TRAFFIC DOES NOT CONSIDER! 
Torrent: Registered [ 2012-09-06 02:35 ]

Download .torrent

Download

14 KB

Status: checked
Completed: 2 times
Size: 670 MB
 
[Profile] [PM]
Display posts:    
Reply to topic

Current time is: 26-Oct 18:44

All times are UTC + 3



You cannot post new topics in this forum
You cannot reply to topics in this forum
You cannot edit your posts in this forum
You cannot delete your posts in this forum
You cannot vote in polls in this forum
You cannot attach files in this forum
You can download files in this forum