Обратный билет / Bilet powrotny (Эва Петельска / Ewa Petelska, Чеслав Петельский / Czesław Petelski) [1978, Польша, Драма, TVRip] Sub Rus + Original Pol

Reply to topic
DL-List and Torrent activity
Size:  670 MB   |    Registered:  7 years 3 months   |    Completed:  1 time

Seeder not seen: 1 day 17 hours

 
   
 
 
 
Author Message

admin ®

Gender: Male

Longevity: 7 years 3 months

Posts: 4813

Post 06-Sep-2012 02:35

[Quote]

Обратный билет / Bilet powrotny
Страна: Польша
Жанр: Драма
Год выпуска: 1978
Продолжительность: 01:45:21
Перевод: Субтитры
Cубтитры: Русские (sasha20072007), перевод на слух, отключаемые
Оригинальная аудиодорожка: Польский
Режиссер: Эва Петельска / Ewa Petelska, Чеслав Петельский / Czesław Petelski
В ролях: Януш Анджеевски, Хенрик Бонк, Лешек Хердеген, Зофия Сареток, Анна Сенюк
Описание: Антонина, молодая женщина, уезжает в Канаду, чтобы на заработанные там деньги построить в городе дом для сына.Отбрасывает предложение о женитьбе со стороны дяди и выходит замуж за Пьера, соседского фермера.Восстанавливает его запущенное хозяйство, но их совместная жизнь складывается, как нельзя хуже.Когда она решает выслать сыну деньги, Пьер впадает в бешенство - посягает на жизнь Антонины и убивает себя.Полупарализованная Антонина возвращается в Польшу.В новом прекрасном районе частных домов она находит сына, но оказывается, что деньги,которые присылала его мать он потратил впустую и дом не построил...
Главная награда фестиваля польских художественных фильмов "Гданьск-78".
Качество видео: TVRip
Формат видео: MKV
Видео: DIVX, 640x464, 25к/с, 647 кбит/с
Аудио: МР3, 44,1 КГц, 112 Кбит/сек, 2 канала
Субтитры: Русские (sasha20072007), SRT, отключаемые
Формат субтитров: softsub (SRT)

MediaInfo

Общее
Уникальный идентификатор : 233238031217783387154913589718289478956 (0xAF7802C703CC40E9B6BE09DE3A1FF52C)
Полное имя : E:\Obratnyj.Bilet.1978.DivX.TVRip.Reliz.Kinozal.TV.mkv
Формат : Matroska
Версия формата : Version 2
Размер файла : 670 Мбайт
Продолжительность : 1 ч. 45 м.
Общий поток : 889 Кбит/сек
Название фильма : Обратній билет Bilet powrotny 1978 Pol+Rus sub
Дата кодирования : UTC 2011-10-10 01:43:15
Программа кодирования : mkvmerge v5.0.1 ('Es ist Sommer') built on Oct 9 2011 11:55:43
Библиотека кодирования : libebml v1.2.2 + libmatroska v1.3.0
Видео
Идентификатор : 1
Формат : MPEG-4 Visual
Параметр BVOP формата : Да
Параметр QPel формата : Нет
Параметр GMC формата : Без точки перехода
Параметр матрицы формата : Default (H.263)
Идентификатор кодека : DIVX
Идентификатор кодека/Информация : Project Mayo
Идентификатор кодека/Подсказка : DivX 4
Продолжительность : 1 ч. 45 м.
Битрейт : 647 Кбит/сек
Ширина : 640 пикс.
Высота : 464 пикс.
Соотношение сторон : 1,379
Частота кадров : 25,000 кадр/сек
Цветовое пространство : YUV
Подвыборка цветности : 4:2:0
Битовая глубина : 8 бит
Тип развёртки : Прогрессивная
Метод сжатия : С потерями
Бит/(Пиксели*Кадры) : 0.087
Размер потока : 488 Мбайт (73%)
Язык : Polish
Аудио #1
Идентификатор : 2
Формат : MPEG Audio
Версия формата : Version 1
Профиль формата : Layer 3
Идентификатор кодека : A_MPEG/L3
Идентификатор кодека/Подсказка : MP3
Продолжительность : 1 ч. 45 м.
Вид битрейта : Постоянный
Битрейт : 112 Кбит/сек
Каналы : 2 канала
Частота : 44,1 КГц
Метод сжатия : С потерями
Размер потока : 84,4 Мбайт (13%)
Заголовок : Пол голос
Язык : Polish
Аудио #2
Идентификатор : 3
Формат : MPEG Audio
Версия формата : Version 1
Профиль формата : Layer 3
Идентификатор кодека : A_MPEG/L3
Идентификатор кодека/Подсказка : MP3
Продолжительность : 1 ч. 45 м.
Вид битрейта : Постоянный
Битрейт : 112 Кбит/сек
Каналы : 2 канала
Частота : 44,1 КГц
Метод сжатия : С потерями
Размер потока : 84,4 Мбайт (13%)
Язык : Polish
Текст
Идентификатор : 4
Формат : UTF-8
Идентификатор кодека : S_TEXT/UTF8
Идентификатор кодека/Информация : UTF-8 Plain Text
Заголовок : Русский (sasha20072007, А.Середа), октябрь 2011г
Язык : Russian

Работа с .mkv

Идя в ногу со временем решил использовать современный контейнер .mkv ,который поддерживает большое число различных типов аудиодорожек и субтитров.Позволяет давать имена дорожкам и поддерживает разбиение на главы.И к тому же очень популярен на территории СНГ.А тех,кто записывает на диски или смотрит на старых ДВД с флешки,хочу успокоить - внутри видео в старом добром формате Xvid.Сделать смотрибельным на старом ДВД дело одной минуты.
Скачиваем небольшой архивчик Работа с mkv.Устанавливаем програмку mkvtoolnix,бросаем в папку с установленным mkvtoolnix (C:Program Files/MKVtoolnix) файлик MKVExtractGUI2.exe.Запускаем его.Вводим наш видеофайл.Выбираем нужные нам дорожки.Нажимаем Extract.Через пару секунд получаем распакованный контейнер.Видео(Xvid),аудиодорожки и субтитры по-отдельности.
Теперь нужно приклеить аудио к видео.Воспользуемся третьей бесплатной програмкой VirtualDubModRus.Открываем папку.Запускаем VirtualDubMod.exe.Дальше: Файл-Открыть видеофайл(открываем видеофайл из распак.контейнера,обычно он идет первым)-Потоки-Потоки-Добавить(добавляем нужные нам аудиодорожки)-Ok-Файл-Сохранить как.Во вкладке Видео обязательно нужно поставить(для избежания перекодирования)Прямопотоковое копирование.Написано много,но вся процедура займет не больше одной минуты

Скриншоты

Скринлист

cd Рип дополнительно залит на mail.ru cd2
Obratnyj.Bilet.1978.DivX.TVRip.Reliz.Kinozal.TV.mkv.2.torrent
 GOLD TORRENT! DOWNLOAD TRAFFIC DOES NOT CONSIDER! 
Torrent: Registered [ 2012-09-06 02:35 ]

Download .torrent

Download

14 KB

Status: checked
Completed: 1 times
Size: 670 MB
 
[Profile] [PM]
Quick Reply

Name:

            
Heads necessary to send messages to enable JavaScript
Display posts:    
Reply to topic

Current time is: 09-Dec 03:34

All times are UTC + 3



You cannot post new topics in this forum
You can reply to topics in this forum
You cannot edit your posts in this forum
You cannot delete your posts in this forum
You cannot vote in polls in this forum
You cannot attach files in this forum
You can download files in this forum