Лунный пилот / Moon Pilot (Джеймс Нилсон / James Neilson) [1962 г., фантастика, комедия, семейный, WEB-DL-720p] ЛО (den904), СТ (kosmoaelita,Severnyj)

Reply to topic
 
Author Message

admin ®

Gender: Male

Longevity: 6 years 11 months

Posts: 4725

Location: Україна

Post 06-Jul-2013 03:17

[Quote]

Лунный пилот / Moon Pilot
Релиз - kosmoaelita. com
Год выпуска: 1962
Страна: США
Жанр: фантастика, комедия, семейный
Продолжительность: 01:38:34
Перевод: ЛО den904 по субтитрам от (kosmoaelita,Severnyj)
Режиссер: Джеймс Нилсон / James Neilson
В ролях:
Tom Tryon ... Capt. Richmond Talbot
Brian Keith ... Maj. Gen. John M. Vanneman
Edmond O'Brien ... McClosky aka 'Mac'
Dany Saval ... Lyrae
Bob Sweeney ... Sen. Henry McGuire
Kent Smith ... Secretary of the Air Force
Tommy Kirk ... Walter Talbot
Simon Scott ... Medical Officer
Bert Remsen ... Agent Brown
Sarah Selby ... Mrs. Celia Talbot
Dick Whittinghill ... Col. Briggs
Описание: Капитан ВВС Тальбот случайно вызывается добровольцем в первый полет вокруг Луны и тут же попадает под бдительный "колпак" различных сцецслужб.Но несмотря на все их меры предосторожности, молодой, очень необычной и красивой женщине Лирэй постоянно удается выходить к нему на контакт. Есть подозрение, что она - шпион...
Релиз

Качество: WEB-DL-720p
Формат: MKV
Видео: x264, 4175 кбит/с, 1274x720, 23.976 к/с
Аудио 1: Русский ЛО (den904) (AC3, 2 ch, 192 Кбит/с)
Аудио 2: Английский (AC3, 2 ch, 192 Кбит/с)
Субтитры : Русские (kosmoaelita,Severnyj), английские
Спонсор русской озвучки - А.Берг


Трейлер

Пример русской озвучки:

Релиз

Релиз kosmoaelita.com
Рип найден на карагарге
Перевод на слух с англ. по заказу kosmoaelita.com - Severnyj
Русская озвучка по заказу kosmoaelita - den904
Спонсор русской озвучки - А.Берг
Для Украины: рип дополнительно залит в файлохранилище
Для удаления,добавления и извлечения дорожек в mkv используйте бесплатную портативную mkvmerge GUI 6.2.0
Для присоединения потом дорожек к avi воспользуйтесь VirtualDubMod

Дополнительно

Also Known As (AKA)
Brazil O Incrível Homem do Espaço
Denmark Må jeg, hr. general!
Spain (video title) Piloto Lunar
Spain Piloto a la luna
Finland Kuu kiikarissa
France Un pilote dans la lune
Italy Un tipo lunatico
Portugal Não Fumar, Não Beber... Nem Beijar
Sweden Ungkarl på rymdfärd
West Germany Mondgeflüster

Рецензия

MediaInfo

Общее
Уникальный идентификатор : 196597828443717369241574045463374200646 (0x93E75D4E91CD2E5593395BCF981BFF46)
Полное имя : F:\Moon Pilot 1962.x264.720p.WEBDL.720p.Rus.kosmoaelita.mkv
Формат : Matroska
Версия формата : Version 4 / Version 2
Размер файла : 3,21 Гбайт
Продолжительность : 1 ч. 38 м.
Общий поток : 4652 Кбит/сек
Название фильма : Лунный пилот / Moon Pilot / 1962г / WEB-DL-720p / Релиз www.kosmoaelita.com
Дата кодирования : UTC 2015-06-03 20:22:46
Программа кодирования : mkvmerge v6.6.0 ('The Edge Of The In Between') built on Dec 1 2013 17:55:00
Библиотека кодирования : libebml v1.3.0 + libmatroska v1.4.1
Видео
Идентификатор : 1
Формат : AVC
Формат/Информация : Advanced Video Codec
Профиль формата : High@L3.1
Параметр CABAC формата : Нет
Параметр ReFrames формата : 2 кадра
Идентификатор кодека : V_MPEG4/ISO/AVC
Продолжительность : 1 ч. 38 м.
Битрейт : 4175 Кбит/сек
Ширина : 1274 пикселя
Высота : 720 пикселей
Соотношение сторон : 16:9
Режим частоты кадров : Постоянный
Частота кадров : 23,976 кадра/сек
Цветовое пространство : YUV
Субдискретизация насыщенности : 4:2:0
Битовая глубина : 8 бит
Тип развёртки : Прогрессивная
Бит/(Пиксели*Кадры) : 0.190
Размер потока : 2,88 Гбайт (90%)
Заголовок : Релиз www.kosmoaelita.com
Язык : English
Default : Да
Forced : Нет
Основные цвета : BT.709
Характеристики трансфера : BT.709
Коэффициенты матрицы : BT.709
colour_range : Limited
Аудио #1
Идентификатор : 2
Формат : AC-3
Формат/Информация : Audio Coding 3
Расширение режима : CM (complete main)
Параметр Endianness формата : Big
Идентификатор кодека : A_AC3
Продолжительность : 1 ч. 38 м.
Вид битрейта : Постоянный
Битрейт : 192 Кбит/сек
Каналы : 2 канала
Расположение каналов : Front: L R
Частота : 48,0 КГц
Битовая глубина : 16 бит
Метод сжатия : С потерями
Размер потока : 136 Мбайт (4%)
Заголовок : Русский ЛО (den904 для kosmoaelita.com) - поддержка Андрей Берг
Язык : Russian
Default : Да
Forced : Нет
Аудио #2
Идентификатор : 3
Формат : AC-3
Формат/Информация : Audio Coding 3
Расширение режима : CM (complete main)
Параметр Endianness формата : Big
Идентификатор кодека : A_AC3
Продолжительность : 1 ч. 38 м.
Вид битрейта : Постоянный
Битрейт : 192 Кбит/сек
Каналы : 2 канала
Расположение каналов : Front: L R
Частота : 48,0 КГц
Битовая глубина : 16 бит
Метод сжатия : С потерями
Размер потока : 136 Мбайт (4%)
Язык : English
Default : Нет
Forced : Нет
Текст #1
Идентификатор : 4
Формат : VobSub
Режим смешивания : zlib
Идентификатор кодека : S_VOBSUB
Идентификатор кодека/Информация : The same subtitle format used on DVDs
Заголовок : Русский (kosmoaelita,Severnyj) VobSub
Язык : Russian
Default : Да
Forced : Нет
Текст #2
Идентификатор : 5
Формат : UTF-8
Идентификатор кодека : S_TEXT/UTF8
Идентификатор кодека/Информация : UTF-8 Plain Text
Заголовок : Русский (kosmoaelita,Severnyj) srt
Язык : Russian
Default : Нет
Forced : Нет
Текст #3
Идентификатор : 6
Формат : UTF-8
Идентификатор кодека : S_TEXT/UTF8
Идентификатор кодека/Информация : UTF-8 Plain Text
Язык : English
Default : Нет
Forced : Нет
Меню
00:00:00.000 : en:chapter 1
00:07:38.000 : en:chapter 2
00:15:17.000 : en:chapter 3
00:24:46.000 : en:chapter 4
00:34:32.000 : en:chapter 5
00:44:30.000 : en:chapter 6
00:57:41.000 : en:chapter 7
01:04:45.000 : en:chapter 8
01:13:23.000 : en:chapter 9
01:21:28.000 : en:chapter 10
01:30:59.000 : en:chapter 11

Пример субтитров

1
00:00:01,200 --> 00:00:04,300
<i>Релиз
www.kosmoaelita.com</i>
2
00:00:04,500 --> 00:00:08,500
Walt Disney
представляет
3
00:00:10,518 --> 00:00:15,167
"Лунный пилот"
(Moon Pilot, 1962г)
4
00:00:15,932 --> 00:00:16,879
Запускайте.
5
00:00:51,733 --> 00:00:54,858
Идите сюда, смотрите, летит!
6
00:01:17,831 --> 00:01:19,651
Всё идёт хорошо, Чарли.
7
00:01:20,541 --> 00:01:21,661
Ты молодец.
8
00:01:25,166 --> 00:01:26,566
Вот оно.
9
00:01:28,384 --> 00:01:31,184
Держись там, Чарли,
продолжай в том же духе.
10
00:01:32,861 --> 00:01:39,565
Выражаем искреннюю признательность
ВВС США за их сотрудничество...
11
00:01:49,364 --> 00:01:54,073
Сердце в норме. Пульс быстрый,
дыхание учащённое.
12
00:01:54,584 --> 00:01:55,997
В остальном всё нормально.
13
00:02:01,349 --> 00:02:04,924
Немного вялый, возможно, оцепеневший,
в целом норма.
14
00:02:06,121 --> 00:02:08,221
Хотел бы я так себя чувствовать.
15
00:02:31,713 --> 00:02:34,112
Сообщите мне, когда заметите его
на радаре.
16
00:02:34,166 --> 00:02:35,566
Да, сэр.
---------------------------------------------
1193
01:37:58,824 --> 01:38:04,620
"... В семь раз веселее,
вы и представить не можете.
1194
01:38:04,621 --> 01:38:10,175
Над нами семь лун, в
семь раз сильней любовь... "
1195
01:38:10,450 --> 01:38:14,637
Будьте вы прокляты, Тальбот!
Это нелепо!
1196
01:38:15,162 --> 01:38:17,262
Пожалуйста, говори со мной!
1197
01:38:18,085 --> 01:38:24,642
"Семь лун любви,
в семь раз больше любви... "
1198
01:38:26,000 --> 01:38:30,000
Перевод на слух с англ. Severnyj
Ред. sasha20072007
июль, 2013 года

Скриншоты











Скринлист



Last edited by admin on 2015-06-03 23:37; edited 3 times in total
[Profile] [PM]

admin ®

Gender: Male

Longevity: 6 years 11 months

Posts: 4725

Location: Україна

Post 15-Feb-2015 14:28 (after 1 year 7 months)

[Quote]

Добавлена русская озвучка от den904
[Profile] [PM]

Трамвай-фильм

Gender: Male

Longevity: 5 years

Posts: 1493

Location: Россия

Post 15-Feb-2015 14:31 (after 2 minutes)

[Quote]

диснеевская комедия, помню хотел брать, но больно не фантастической она мне показалась. И сейчас понимаю, хорошо, что не взял.
[Profile] [PM]

Guest

Gender: Unknown

Post 03-Jun-2015 21:05 (after 3 months 16 days)

[Quote]

обнови
http://karagarga.net/details.php?id=187168
 

admin ®

Gender: Male

Longevity: 6 years 11 months

Posts: 4725

Location: Україна

Post 03-Jun-2015 23:38 (after 2 hours 33 minutes)

[Quote]

Перезалито в лучшем качестве
http://screenshotcomparison.com/comparison/129848

[Profile] [PM]
Display posts:    
Reply to topic

Current time is: 22-Aug 15:19

All times are UTC + 3



You cannot post new topics in this forum
You cannot reply to topics in this forum
You cannot edit your posts in this forum
You cannot delete your posts in this forum
You cannot vote in polls in this forum
You cannot attach files in this forum
You cannot download files in this forum