Доктор Голдфут и девушки-бомбы / Le spie vengono dal semifreddo / Dr. Goldfoot and the Girl Bombs (Марио Бава / Mario Bava) [1966 г., фантастика, комедия, BDRip-AVC] ПМ (MGM HD), ЛО (ССК+)

Reply to topic
 
Author Message

admin ®

Gender: Male

Longevity: 8 years

Posts: 4794

Post 22-Jun-2013 03:50

[Quote]

Доктор Голдфут и девушки-бомбы / Le spie vengono dal semifreddo / Dr. Goldfoot and the Girl Bombs
Год выпуска: 1966
Страна: Италия, США
Жанр: фантастика, комедия
Продолжительность: 01:23:20, 01:18:31
Перевод (итал. версия): ЛО ССК+
Перевод (англ. версия): ПМ MGM HD
Режиссер: Марио Бава / Mario Bava
В ролях: Vincent Price ... General Willis / Dr. Goldfoot
Fabian ... Bill Dexter
Franco Franchi ... Franco
Ciccio Ingrassia ... Ciccio
Francesco Mulé ... Colonel Doug Benson
Laura Antonelli ... Rosanna
Описание: Учёный-злодей д-р Голдфут собирается захватить власть над всей планетой Земля. Для этого он изобретает смертоносных роботов, пластиковых клонов девушек, начиненных взрывчаткой, которые запрограммированы на уничтожение военной элиты стран НАТО. Д-р Голдфут рассчитывает за счет этого спровоцировать военный конфликт между Россией и Америкой. Секретный агент Билл Декстер (его сыграл Фабиан) должен обезвредить злобного маньяка, в этом ему помогает парочка придурков (умопомрачительные комики Франко и Чиччо) и обворожительная секретарша Росанна (легендарная Лаура Антонелли здесь максимально скромна). Герои, преследуя злодея, попадают в Сибирь в лапы ОГПУ, пьют водку и слушают цыган, а чем это всё кончится...смотрите сами! В этом комедийном фильме, снятом с явными аллюзиями на тему Джеймса Бонда (я бы даже сказал, грубо пародируя бондиаду) и как итальянский ответ на вышедший годом раньше в Америке фильм "Доктор Голдфут и бикини-машина" с тем же Винсентом Прайсом в роли злодея, нет никакой особой художественной ценности, это чистое развлекалово. Кто помнит советскую комедию "Семь стариков и одна девушка", сразу поймет, в каком ключе снят и этот фильм. Кстати, при просмотре у меня лично возникали неоднократные сильные ассоциации с "Семью стариками..." по многим аспектам, в том числе художественному оформлению, сюжетным перипетиям, клоунским диалогам и даже отдельным репликам персонажей. Кстати, этот фильм снят в 1966, а "Семь стариков..." - в 1968 году. cd Доктор Голдфут и бикини-машины / Dr. Goldfoot and the Bikini Machine cd2Качество: BDRip-AVC
Формат: MKV
Видео: x264, 2500 кбит/с, 1024x544, 23,976 к/с[, crf=20,70
Аудио 1: Русский ПМ (ССК+MGM HD) (AC3, 2 ch, 192 Кбит/с)
Аудио 2: Английский (AC3, 2 ch, 256 Кбит/с)
Аудио 3: Английский Comment (AC3, 2 ch, 256 Кбит/с)
======================================
Качество: DVDRip-AVC
Формат: AVI
Видео: x264, 1953 кбит/с, 716x548@1018х548, 25 к/с, crf=19
Аудио 1: Русский ЛО (ССК+) (AC3, 2 ch, 192 Кбит/с)
Аудио 2: Итальянский (AC3, 2 ch, 192 Кбит/с)
Субтитры: Английские, итальянские
Работа над релизом:
Рип с BD25 (англ. версия) - sasha20072007 (kosmoaelita)



Русский ПМ (англ. версия)

Релиз

Перевод и озвучка итал. версии - ССК+
Рип с ДВД5 - kosmoaelita
Русская озвучка была наложена с высоким уровнем громкости, поєтому пришлось немного пройтись компрессором
Для Украины: рип дополнительно залит в файлохранилище
Для удаления,добавления и извлечения дорожек в mkv используйте бесплатную портативную mkvmerge GUI 6.2.0
Для присоединения потом дорожек к avi воспользуйтесь VirtualDubMod

Дополнительно

рейтинг MPAA лицам до 17 лет обязательно присутствие взрослого
слоган «MEET THE MOST TITILATING TIME BOMBS EVER!»
Also Known As (AKA)
Dr. Goldfoot and the Girl Bombs USA, World-wide (English title) (theatrical title)
Bidik ile Düdük kadin bombalar arasinda Turkey (imdb display title) (Turkish title)
Bonecas Explosivas Brazil
Dr. Goldfoot and his Girl Bombs World-wide (English title) (informal title)
Dr. Goldfoot and the 'S' Bomb UK
Dr. Goldfoot and the 'S' Bombs
Dr. Goldfoot and the Love Bomb
Dr. Goldfoot and the Sex Bombs
Dr. Goldfoot és a lánybombák Hungary (imdb display title)
Il clan dei due mafiosi Italy (alternative title)
L'espion qui venait du surgele France (TV title)
L'espion qui venait du surgelé France
Oi dyo mafiozoi Greece (transliterated ISO-LATIN-1 title)
Spies Come from Half-Cold
The Spy Came from the Semi-Cold World-wide (English title) (literal title)
Two Mafia Guys from the FBI World-wide (English title) (literal title)

MediaInfo

Общее
Уникальный идентификатор : 231371141925435474212753238641932818185 (0xAE107607618F37F4AC972C80C190D709)
Полное имя : F:\Dr. Goldfoot and the Girl Bombs 1966\Dr. Goldfoot and the Girl Bombs 1966.x264.BDRip.AVC.Eng.version.kosmoaelita.mkv
Формат : Matroska
Версия формата : Version 4 / Version 2
Размер файла : 1,84 Гбайт
Продолжительность : 1 ч. 21 м.
Общий поток : 3206 Кбит/сек
Название фильма : Dr. Goldfoot and the Girl Bombs | 1966 | rip from NTSC BD25 by sasha20072007 (kosmoaelita) (2015-12-01), crf=20.64
Дата кодирования : UTC 2015-12-01 09:42:37
Программа кодирования : mkvmerge v6.6.0 ('The Edge Of The In Between') built on Dec 1 2013 17:55:00
Библиотека кодирования : libebml v1.3.0 + libmatroska v1.4.1
Attachements : 00044.log
Видео
Идентификатор : 2
Формат : AVC
Формат/Информация : Advanced Video Codec
Профиль формата : High@L4.1
Параметр CABAC формата : Да
Параметр ReFrames формата : 8 кадров
Идентификатор кодека : V_MPEG4/ISO/AVC
Продолжительность : 1 ч. 21 м.
Битрейт : 2500 Кбит/сек
Ширина : 1024 пикселя
Высота : 554 пикселя
Соотношение сторон : 1,85:1
Режим частоты кадров : Постоянный
Частота кадров : 23,976 кадра/сек
Цветовое пространство : YUV
Субдискретизация насыщенности : 4:2:0
Битовая глубина : 8 бит
Тип развёртки : Прогрессивная
Бит/(Пиксели*Кадры) : 0.184
Размер потока : 1,40 Гбайт (76%)
Библиотека кодирования : x264 core 130 r2273 b3065e6
Настройки программы : cabac=1 / ref=8 / deblock=1:-1:-1 / analyse=0x3:0x133 / me=umh / subme=11 / psy=1 / psy_rd=0.99:0.14 / mixed_ref=1 / me_range=24 / chroma_me=1 / trellis=2 / 8x8dct=1 / cqm=0 / deadzone=21,11 / fast_pskip=1 / chroma_qp_offset=-3 / threads=6 / lookahead_threads=1 / sliced_threads=0 / nr=0 / decimate=1 / interlaced=0 / bluray_compat=0 / constrained_intra=0 / bframes=8 / b_pyramid=2 / b_adapt=2 / b_bias=0 / direct=3 / weightb=1 / open_gop=0 / weightp=2 / keyint=210 / keyint_min=21 / scenecut=40 / intra_refresh=0 / rc_lookahead=80 / rc=2pass / mbtree=1 / bitrate=2500 / ratetol=1.0 / qcomp=0.65 / qpmin=0 / qpmax=69 / qpstep=4 / cplxblur=20.0 / qblur=0.5 / ip_ratio=1.25 / aq=1:0.90
Язык : English
Default : Да
Forced : Нет
Основные цвета : BT.709
Характеристики трансфера : BT.709
Коэффициенты матрицы : BT.709
colour_range : Limited
Аудио #1
Идентификатор : 1
Формат : AC-3
Формат/Информация : Audio Coding 3
Расширение режима : CM (complete main)
Параметр Endianness формата : Big
Идентификатор кодека : A_AC3
Продолжительность : 1 ч. 21 м.
Вид битрейта : Постоянный
Битрейт : 192 Кбит/сек
Каналы : 2 канала
Расположение каналов : Front: L R
Частота : 48,0 КГц
Битовая глубина : 16 бит
Метод сжатия : С потерями
Размер потока : 113 Мбайт (6%)
Заголовок : Русский ПМ (MGM HD)
Язык : Russian
Default : Да
Forced : Нет
Аудио #2
Идентификатор : 3
Формат : AC-3
Формат/Информация : Audio Coding 3
Расширение режима : CM (complete main)
Параметр Endianness формата : Big
Идентификатор кодека : A_AC3
Продолжительность : 1 ч. 21 м.
Вид битрейта : Постоянный
Битрейт : 256 Кбит/сек
Каналы : 2 канала
Расположение каналов : Front: L R
Частота : 48,0 КГц
Битовая глубина : 16 бит
Метод сжатия : С потерями
Размер потока : 150 Мбайт (8%)
Язык : English
Default : Нет
Forced : Нет
Аудио #3
Идентификатор : 4
Формат : AC-3
Формат/Информация : Audio Coding 3
Расширение режима : CM (complete main)
Параметр Endianness формата : Big
Идентификатор кодека : A_AC3
Продолжительность : 1 ч. 21 м.
Вид битрейта : Постоянный
Битрейт : 256 Кбит/сек
Каналы : 2 канала
Расположение каналов : Front: L R
Частота : 48,0 КГц
Битовая глубина : 16 бит
Метод сжатия : С потерями
Размер потока : 150 Мбайт (8%)
Заголовок : Eng Comment
Язык : English
Default : Нет
Forced : Нет
Меню
00:00:00.000 : en:00:00:00.000
00:09:02.959 : en:00:09:02.959
00:20:55.504 : en:00:20:55.504
00:34:15.929 : en:00:34:15.929
00:42:31.549 : en:00:42:31.549
00:54:58.337 : en:00:54:58.337
01:03:37.564 : en:01:03:37.564
01:12:21.879 : en:01:12:21.879
01:22:04.795 : en:01:22:04.795

Скриншоты
















============================================


cd Рипы дополнительно залиты на mail.ru cd2 cd Доктор Голдфут и бикини-машина / Dr. Goldfoot and the Bikini Machine cd2


Last edited by admin on 2015-12-01 19:09; edited 11 times in total
[Profile] [PM]

Guest

Gender: Unknown

Post 22-Jun-2013 09:08 (after 5 hours)

[Quote]

тупой фильм,29 минут выдержал
 

Guest

Gender: Unknown

Post 26-Aug-2013 23:17 (after 2 months 4 days)

[Quote]

Добавлена англ. версия фильма с рутрекера с ПМ озвучкой от MGM HD. Версии кардинально отличаются и взаимно дополняют друг друга
 

Guest

Gender: Unknown

Post 19-May-2014 20:43 (after 8 months 23 days)

[Quote]

Это не комедия.Это -эротическая шиза.
Таких тупых шуток даже в передачах Петросяна не бывает.
И обилие девчонок в бикини не спасает.
Хотя то,как команда шизиков пыталась догнать на воздушном шаре американский бомбардировщик (и чуть не догнали ведь !! ) с помощью настольного вентилятора ,
очень повеселило.
А это ну ваааще :
-Чичо,глянь,это же Великая Китайская стена!
- Нет,это Железный занавес- Уральские горы!
Да уж.На воздушном шаре эти ребята отожгли не по-детски.
Но за раздачу спасибо.Все таки это редкий фильм и для расширения кругозора я его посмотрел.
 

admin ®

Gender: Male

Longevity: 8 years

Posts: 4794

Post 01-Dec-2015 19:07 (after 1 year 6 months)

[Quote]

SATRip канала MGM заменен на BDRip-AVC
[Profile] [PM]
Display posts:    
Reply to topic

Current time is: 20-Sep 16:18

All times are UTC + 3



You cannot post new topics in this forum
You cannot reply to topics in this forum
You cannot edit your posts in this forum
You cannot delete your posts in this forum
You cannot vote in polls in this forum
You cannot attach files in this forum
You cannot download files in this forum