Длина волны / Wavelength (Майк Грэй / Mike Gray) [1983 г., фантастика, LDRip] ЛО (den904), СТ (kosmoaelita,Severnyj)

Reply to topic
DL-List and Torrent activity
Size:  784 MB   |    Registered:  5 years   |    Completed:  3 times

Seeder not seen: 10 months 10 days

 
   
 
 
 
Author Message

admin ®

Gender: Male

Longevity: 7 years 7 months

Posts: 4811

Post 11-Jun-2013 15:05

[Quote]

Длина волны / Wavelength
Релиз - kosmoaelita. com
Год выпуска: 1983
Страна: США, The Rosenfield Company
Жанр: фантастика
Продолжительность: 01:27:39
Перевод 1: ЛО (den904)
Перевод 2: Субтитры (kosmoaelita,Severnyj)
Режиссер: Майк Грэй / Mike Gray
В ролях:
Robert Carradine ... Bobby Sinclair
Cherie Currie ... Iris Longacre
Keenan Wynn ... Dan
Cal Bowman ... Gen. Milton Ward
James Hess ... Col. James MacGruder
Terry Burns ... Capt. Hinsdale
Eric Morris ... Dr. Vernon Cottrell
Bob McLean ... Dr. Benjamin Stern
Eric Heath ... Dr. Sidey
Robert Glaudini ... Dr. Wolf
George Petrie ... Dr. Savianno (as George O. Petrie)
George Skaff ... Gen. Hunt
Milt Kogan ... Chief Pathologist
Dov Young ... Gamma
Josh Oreck ... Beta (as Joshua Oreck)
Описание: Художница Айрис и музыкант Бобби знакомятся в баре и становятся любовниками. Однажды Айрис из их дома на голливудских холмах слышит очень странные звуки, доносящиеся из пустыни. Они отправляются в том направлении и обнаруживают старую военную базу. Пробравшись внутрь, находят четырех инопланетян, с виду похожих на детей, над которыми военные проводят эксперименты. Внезапно люди на базе начинают умирать один за другим.Одна лишь только Айрис в состоянии воспринимать мысли пришельцев...
Релиз

Качество: LDRip
Формат: MKV
Видео: x264, 841 кбит/с, 636x480, 23.976 к/с, crf=19
Аудио 1: Русский ЛО (den904) (AC3, 2 ch, 192 Кбит/с)
Аудио 2: Английский (AC3, 2 ch, 192 Кбит/с)
Субтитры : Русские (Severnyj)
Работа над релизом:
Релиз kosmoaelita.com
Рип найден на синемагеддоне
Перевод на слух с англ. по заказу kosmoaelita.com - Severnyj
Русская озвучка по заказу kosmoaelita.com - den904
Вся работа со звуком - kosmoaelita



Пример русской озвучки

Релиз

Для Украины: рип дополнительно залит в файлохранилище
Для удаления,добавления и извлечения дорожек в mkv используйте бесплатную портативную mkvmerge GUI 7.1.0
Для присоединения потом дорожек к avi воспользуйтесь VirtualDubMod

Дополнительно

рейтинг MPAA рекомендуется присутствие родителей
слоган «The alien terror is here on Earth! Two weeks ago THEY landed on Earth. Today beneath a major American city the experiments begin.»
Also Known As (AKA)
Kahlittu kauhu Finland
Oliot Finland
Onde de choc France
Terror från det okända Sweden
Wavelength USA

Отзывы

Рецензия

MediaInfo

Общее
Уникальный идентификатор : 185393991887252827909464653168348172273 (0x8B7995843414D6639BFDA161E41B0FF1)
Полное имя : N:\Wavelength 1983.x264.LDRip.Rus.kosmoaelita.mkv
Формат : Matroska
Версия формата : Version 4 / Version 2
Размер файла : 784 Мбайт
Продолжительность : 1 ч. 27 м.
Общий поток : 1250 Кбит/сек
Название фильма : Длина волны / Wavelength / LDRip / 1983г / Релиз www.kosmoaelita.com
Дата кодирования : UTC 2015-04-02 15:08:33
Программа кодирования : mkvmerge v6.6.0 ('The Edge Of The In Between') built on Dec 1 2013 17:55:00
Библиотека кодирования : libebml v1.3.0 + libmatroska v1.4.1
Attachements : Wavelength (back).jpg / Wavelength (front).jpg / kinopoisk_ru-Wavelength-1516691--o--.jpg
Видео
Идентификатор : 1
Формат : AVC
Формат/Информация : Advanced Video Codec
Профиль формата : High@L3.1
Параметр CABAC формата : Да
Параметр ReFrames формата : 5 кадров
Идентификатор кодека : V_MPEG4/ISO/AVC
Продолжительность : 1 ч. 27 м.
Битрейт : 841 Кбит/сек
Ширина : 636 пикселей
Высота : 480 пикселей
Соотношение сторон : 4:3
Режим частоты кадров : Постоянный
Частота кадров : 23,976 кадра/сек
Цветовое пространство : YUV
Субдискретизация насыщенности : 4:2:0
Битовая глубина : 8 бит
Тип развёртки : Прогрессивная
Бит/(Пиксели*Кадры) : 0.115
Размер потока : 527 Мбайт (67%)
Заголовок : Релиз www.kosmoaelita.com
Библиотека кодирования : x264 core 144 r2525 40bb568
Настройки программы : cabac=1 / ref=5 / deblock=1:0:0 / analyse=0x3:0x113 / me=umh / subme=8 / psy=1 / psy_rd=1.00:0.00 / mixed_ref=1 / me_range=16 / chroma_me=1 / trellis=1 / 8x8dct=1 / cqm=0 / deadzone=21,11 / fast_pskip=1 / chroma_qp_offset=-2 / threads=12 / lookahead_threads=2 / sliced_threads=0 / nr=0 / decimate=1 / interlaced=0 / bluray_compat=0 / constrained_intra=0 / bframes=3 / b_pyramid=2 / b_adapt=2 / b_bias=0 / direct=3 / weightb=1 / open_gop=0 / weightp=2 / keyint=200 / keyint_min=24 / scenecut=40 / intra_refresh=0 / rc_lookahead=50 / rc=crf / mbtree=1 / crf=19.0 / qcomp=0.60 / qpmin=0 / qpmax=69 / qpstep=4 / ip_ratio=1.40 / aq=1:1.00
Язык : English
Default : Да
Forced : Нет
DURATION : 01:27:39.421000000
NUMBER_OF_FRAMES : 126100
NUMBER_OF_BYTES : 559064042
_STATISTICS_WRITING_APP : mkvmerge v7.7.0 ('Six Voices') 64bit built on Feb 28 2015 23:39:33
_STATISTICS_WRITING_DATE_UTC : 2015-03-29 10:14:40
_STATISTICS_TAGS : BPS DURATION NUMBER_OF_FRAMES NUMBER_OF_BYTES
Аудио #1
Идентификатор : 2
Формат : AC-3
Формат/Информация : Audio Coding 3
Расширение режима : CM (complete main)
Параметр Endianness формата : Big
Идентификатор кодека : A_AC3
Продолжительность : 1 ч. 27 м.
Вид битрейта : Постоянный
Битрейт : 192 Кбит/сек
Каналы : 2 канала
Расположение каналов : Front: L R
Частота : 48,0 КГц
Битовая глубина : 16 бит
Метод сжатия : С потерями
Размер потока : 120 Мбайт (15%)
Заголовок : Русский ЛО (den904 для kosmoaelita.com)
Язык : Russian
Default : Да
Forced : Нет
Аудио #2
Идентификатор : 3
Формат : AC-3
Формат/Информация : Audio Coding 3
Расширение режима : CM (complete main)
Параметр Endianness формата : Big
Идентификатор кодека : A_AC3
Продолжительность : 1 ч. 27 м.
Вид битрейта : Постоянный
Битрейт : 192 Кбит/сек
Каналы : 2 канала
Расположение каналов : Front: L R
Частота : 48,0 КГц
Битовая глубина : 16 бит
Метод сжатия : С потерями
Размер потока : 120 Мбайт (15%)
Язык : English
Default : Нет
Forced : Нет
Текст #1
Идентификатор : 4
Формат : VobSub
Режим смешивания : zlib
Идентификатор кодека : S_VOBSUB
Идентификатор кодека/Информация : The same subtitle format used on DVDs
Заголовок : Русский (kosmoaelita,Severnyj) VobSub - перевод на слух с англ.
Язык : Russian
Default : Да
Forced : Нет
Текст #2
Идентификатор : 5
Формат : VobSub
Режим смешивания : zlib
Идентификатор кодека : S_VOBSUB
Идентификатор кодека/Информация : The same subtitle format used on DVDs
Заголовок : Русский (kosmoaelita,Severnyj) VobSub - перевод на слух с англ.
Язык : Russian
Default : Нет
Forced : Нет
Текст #3
Идентификатор : 6
Формат : UTF-8
Идентификатор кодека : S_TEXT/UTF8
Идентификатор кодека/Информация : UTF-8 Plain Text
Заголовок : Русский (kosmoaelita,Severnyj) srt - перевод на слух с англ.
Язык : Russian
Default : Нет
Forced : Нет

Пример субтитров

1
00:00:01,384 --> 00:00:04,300
<i>Релиз
www.kosmoaelita.com</i>
2
00:01:12,320 --> 00:01:18,378
Длина волны
(Wavelength, 1983г)
3
00:03:05,649 --> 00:03:09,295
Заткнись, Фрэнк.
Ничего там нет.
4
00:03:39,786 --> 00:03:40,906
Фрэнк.
5
00:03:42,713 --> 00:03:45,910
Давай, залезай в машину.
Что с тобой, хочешь ещё один выходной?
6
00:03:49,351 --> 00:03:50,751
Сюда, Фрэнк.
7
00:03:51,672 --> 00:03:53,968
Ну всё, ты уволен, отправляйся
к собаке-начальнику.
8
00:03:57,502 --> 00:04:01,650
В любое другое время Боб,
вероятно бы понял,
что происходит что-то странное.
9
00:04:02,620 --> 00:04:04,838
Наверное, у него было слишком
много других проблем,
10
00:04:04,839 --> 00:04:06,800
...чтобы заметить эти
маленькие странные детали.
11
00:04:10,314 --> 00:04:13,696
Последние пару лет он
скрывался от всех в каньоне.
12
00:04:13,697 --> 00:04:17,277
Измотанный, обессилевший
и одряхлевший в свои 27 лет.
13
00:04:18,081 --> 00:04:23,018
Но теперь он опять начал творить.
И его старые приятели помогали ему
с работой в студии.
14
00:04:33,814 --> 00:04:37,477
- Господи Иисусе...
- Не рановато ли, Гордон? Я забираю это.
15
00:04:47,495 --> 00:04:50,326
- Винс. Дай мне плёнку.
- С радостью, парень.
16
00:04:51,101 --> 00:04:54,585
Но сначала поговорим о 32 кусках,
которые ты мне должен за прошлый альбом.
17
00:04:54,663 --> 00:04:58,998
Я уже говорил тебе, и сейчас говорю,
я всем заплачу. Расплачусь своими песнями.
18
00:04:59,061 --> 00:05:00,537
Расскажешь это моему адвокату.
19
00:05:11,426 --> 00:05:14,367
Моя проблема заключается
в том, что я вижу...
20
00:05:14,368 --> 00:05:17,924
...измученную душу с расстояния
примерно в 450 метров.
21
00:05:19,254 --> 00:05:23,073
У меня какое-то... можно сказать,
чутьё на подобные вещи.
22
00:05:26,046 --> 00:05:27,166
Бёрт.
23
00:05:42,521 --> 00:05:45,247
- Эй, маэстро, как жизнь?
- Привет, Марв.
24
00:05:45,387 --> 00:05:47,246
- Я слышал, ты снова взялся за дело.
- Да.
---------------------------------------------
688
01:24:29,609 --> 01:24:32,888
Как я уже говорила, у меня бывают
разные предчувствия...
689
01:24:37,609 --> 01:24:41,888
Перевод на слух с англ. Severnyj
Ред. sasha20072007
июнь, 2013 года

Скриншоты











Скринлист

cd Рип дополнительно залит на mail.ru cd2
Wavelength 1983.x264.LDRip.Rus.kosmoaelita.mkv.torrent
Torrent: Registered [ 2015-04-02 18:13 ]

Download .torrent

Download

31 KB

Status: checked
Completed: 3 times
Size: 784 MB
 


Last edited by admin on 2015-04-02 18:40; edited 14 times in total
[Profile] [PM]

bot

Post 13-Jun-2013 16:14 (after 2 days 1 hour)

Топик был перенесен из форума Новые релизы kosmoaelita.com в форум 1980-1989 г. Начало упадка, последние шедевры

admin
 

Guest

Gender: Unknown

Post 14-Jun-2013 02:58 (after 2 days 11 hours)

[Quote]

Добавлена русская озвучка от den904
 

Guest

Gender: Unknown

Post 16-Jun-2013 21:19 (after 2 days 18 hours)

[Quote]

Спасибо за озвучку от Дена. Необычно.
 

Guest

Gender: Unknown

Post 15-Jan-2014 01:25 (after 6 months 28 days)

[Quote]

Фильм кстати очень неплох, несмотря на некоторые чисто технические огрехи в виде микрофона.
 

admin ®

Gender: Male

Longevity: 7 years 7 months

Posts: 4811

Post 02-Apr-2015 18:08 (after 1 year 2 months)

[Quote]

Перезалито в лучшем качестве.
VHSRip 29,97 --> LDRip 23,976
[Profile] [PM]
Display posts:    
Reply to topic

Current time is: 07-Apr 06:35

All times are UTC + 3



You cannot post new topics in this forum
You cannot reply to topics in this forum
You cannot edit your posts in this forum
You cannot delete your posts in this forum
You cannot vote in polls in this forum
You cannot attach files in this forum
You can download files in this forum