Война роботов / La guerra dei robot / The War Of The Robots (Альфонсо Брешия) [1978 г., фантастика, боевик, приключения, VHSRip] ЛО (В.Рутилов), СТ (kosmoaelita,Severnyj)

Ответить на тему
 
Автор Сообщение

admin ®

Пол: Мужской

Стаж: 5 лет 3 месяца

Сообщений: 4748

Откуда: Україна

Создавать темы 26-Май-2013 16:25

[Цитировать]

Война роботов / La guerra dei robot / The War Of The Robots
Релиз - kosmoaelita. com
Год выпуска: 1978
Страна: Италия
Жанр: фантастика, боевик, приключения
Продолжительность: 01:40:02
Перевод 1: Субтитры (kosmoaelita,Severnyj)
Перевод 2: Русский ЛО (fiendover (Виктор Рутилов
Режиссер: Альфонсо Брешия
В ролях:
Antonio Sabato ... Captain John Boyd
Yanti Somer ... Julie
Malisa Longo ... Lois (as Melissa Long)
Patrizia Gori ... Trissa Crew (as Patricia Gore)
Giacomo Rossi-Stuart ... Roger (as James R. Stuart)
Roberto Bianchetti ... (as Robert Barnes)
Aldo Canti ... Kuba the Alien (as Nick Jordan)
Enrico Gozzo ... (as Henry Goddard)
Licinia Lentini ... Commander King's assistant (as Lilian Lacy)
Frank Siedlitz ... Herb Julian
Massimo Righi ... Dr. Wilkes (as Max Wright)
Dino Scandiuzzi ... Jack (as Dean Cantor)
Nicole Stoliaroff ... Trissa crew (as Nicole Stocks)
Ian Pulley ... Anthorian Leader
Venantino Venantini ... Paul (as Vernon Vernons)
Описание: Вымирающая инопланетная цивилизация похищает с Земли двух знаменитых ученых-генетиков. Власти посылают спасательную экспедицию для сражения с гуманоидными роботами и спасения ученых...
Пентология итальянских Звездных Войн А.Брешиа:
1 Год ноль - война планет / Anno zero - guerra nello spazio 1977
2 Космические баталии / Battaglie negli spazi stellari / Battle of The Stars 1978
3 Война роботов / La guerra dei robot / The War Of The Robots 1978
4 Звёздная Одиссея / Sette uomini d'oro nello spazio / Captive Planet / Star Odyssey 1979
5 Зверь из космоса / La bestia nello spazio / 1980
Релиз

Качество: VHSRip
Формат: MKV
Видео: x264, 1400 кбит/с, 720x512, 29.97 к/с
Аудио 1: Русский (Рутилов) (AC3, 2 ch, 192 Кбит/с)
Аудио 2: Английский (AC3, 2 ch, 192 Кбит/с)
Субтитры : Русские (Severnyj)


Пример русской озвучки

Релиз

Релиз kosmoaelita.com
Рип найден в сети
Перевод на слух с англ. по заказу kosmoaelita.com - Severnyj
Озвучка по заказу kosmoaelita.com - fiendover (Виктор Рутилов)
Для Украины: рип дополнительно залит в файлохранилище
Для удаления,добавления и извлечения дорожек в mkv используйте бесплатную портативную mkvmerge GUI 6.2.0
Для присоединения потом дорожек к avi воспользуйтесь VirtualDubMod

Дополнительно

рейтинг MPAA детям до 13 лет просмотр не желателен
слоган «Hostile Alien Cyborgs in a Battle for the Universe»
Also Known As (AKA)
Kodikos: 'Soste ti Gi' Greece (video title)
Krieg der Roboter West Germany
La guerra de los robots Spain
La guerre des robots France
Reactor (undefined) (video title)
Robots (undefined)
Stratostars (undefined)
War of the Robots USA

Рецензия

MediaInfo

Общее
Уникальный идентификатор : 182388271495160252171589541184459541977 (0x8936B40F40FE92FAB7D087285D788DD9)
Полное имя : F:\The War Of The Robots 1978.x264.VHSRip.Rus.kosmoaelita.mkv
Формат : Matroska
Версия формата : Version 4 / Version 2
Размер файла : 1,25 Гбайт
Продолжительность : 1 ч. 40 м.
Общий поток : 1794 Кбит/сек
Название фильма : Война роботов / La guerra dei robot / The War Of The Robots / 1978
Дата кодирования : UTC 2013-07-26 23:32:56
Программа кодирования : mkvmerge v6.3.0 ('You can't stop me!') built on Jun 28 2013 20:09:41
Библиотека кодирования : libebml v1.3.0 + libmatroska v1.4.0
Attachment : Yes
Видео
Идентификатор : 1
Формат : AVC
Формат/Информация : Advanced Video Codec
Профиль формата : High@L4.1
Параметр CABAC формата : Да
Параметр ReFrames формата : 10 кадров
Идентификатор кодека : V_MPEG4/ISO/AVC
Продолжительность : 1 ч. 40 м.
Битрейт : 1400 Кбит/сек
Ширина : 720 пикселей
Высота : 512 пикселей
Соотношение сторон : 1,406
Режим частоты кадров : Постоянный
Частота кадров : 29,970 кадров/сек
Цветовое пространство : YUV
Субдискретизация насыщенности : 4:2:0
Битовая глубина : 8 бит
Тип развёртки : Прогрессивная
Бит/(Пиксели*Кадры) : 0.127
Размер потока : 983 Мбайт (77%)
Заголовок : Релиз www.kosmoaelita.com
Библиотека кодирования : x264 core 130 r2273 b3065e6
Настройки программы : cabac=1 / ref=10 / deblock=1:0:-1 / analyse=0x3:0x133 / me=umh / subme=11 / psy=1 / psy_rd=0.95:0.15 / mixed_ref=1 / me_range=24 / chroma_me=1 / trellis=2 / 8x8dct=1 / cqm=0 / deadzone=21,11 / fast_pskip=1 / chroma_qp_offset=-3 / threads=6 / lookahead_threads=1 / sliced_threads=0 / nr=0 / decimate=1 / interlaced=0 / bluray_compat=0 / constrained_intra=0 / bframes=10 / b_pyramid=2 / b_adapt=2 / b_bias=0 / direct=3 / weightb=1 / open_gop=0 / weightp=2 / keyint=220 / keyint_min=22 / scenecut=40 / intra_refresh=0 / rc_lookahead=60 / rc=2pass / mbtree=1 / bitrate=1400 / ratetol=1.0 / qcomp=0.60 / qpmin=0 / qpmax=69 / qpstep=4 / cplxblur=20.0 / qblur=0.5 / ip_ratio=1.25 / aq=1:0.90
Default : Да
Forced : Нет
Основные цвета : BT.601 PAL
Характеристики трансфера : BT.470 System B, BT.470 System G
Коэффициенты матрицы : BT.601
Аудио #1
Идентификатор : 2
Формат : AC-3
Формат/Информация : Audio Coding 3
Расширение режима : CM (complete main)
Параметр Endianness формата : Big
Идентификатор кодека : A_AC3
Продолжительность : 1 ч. 40 м.
Вид битрейта : Постоянный
Битрейт : 192 Кбит/сек
Каналы : 2 канала
Расположение каналов : Front: L R
Частота : 48,0 КГц
Битовая глубина : 16 бит
Метод сжатия : С потерями
Размер потока : 137 Мбайт (11%)
Заголовок : Русский ЛО (В.Рутилов для kosmoaelita.com)
Язык : Russian
Default : Да
Forced : Нет
Аудио #2
Идентификатор : 3
Формат : AC-3
Формат/Информация : Audio Coding 3
Расширение режима : CM (complete main)
Параметр Endianness формата : Big
Идентификатор кодека : A_AC3
Продолжительность : 1 ч. 40 м.
Вид битрейта : Постоянный
Битрейт : 192 Кбит/сек
Каналы : 2 канала
Расположение каналов : Front: L R
Частота : 48,0 КГц
Битовая глубина : 16 бит
Метод сжатия : С потерями
Размер потока : 137 Мбайт (11%)
Язык : English
Default : Нет
Forced : Нет
Текст #1
Идентификатор : 4
Формат : VobSub
Идентификатор кодека : S_VOBSUB
Идентификатор кодека/Информация : The same subtitle format used on DVDs
Заголовок : Русский (kosmoaelita,Severnyj) VobSub
Язык : Russian
Default : Да
Forced : Нет
Текст #2
Идентификатор : 5
Формат : UTF-8
Идентификатор кодека : S_TEXT/UTF8
Идентификатор кодека/Информация : UTF-8 Plain Text
Заголовок : Русский (kosmoaelita,Severnyj) srt
Язык : Russian
Default : Нет
Forced : Нет

Пример субтитров

1
00:00:02,084 --> 00:00:05,300
<i>Релиз
www.kosmoaelita.com</i>
2
00:00:06,441 --> 00:00:10,013
Война роботов
(The War Of The Robots)
(La guerra dei robot, 1978г )
3
00:01:36,087 --> 00:01:37,690
Тревога первой степени!
4
00:01:37,745 --> 00:01:42,002
Спутник в секторе "H"
прекратил функционировать.
5
00:01:42,956 --> 00:01:44,076
Тревога первой степени!
6
00:01:44,648 --> 00:01:48,425
Спутник в секторе "H"
прекратил функционировать.
7
00:01:49,252 --> 00:01:52,395
Космическая станция "Сириус"
вызывает Космический Форт.
8
00:01:52,622 --> 00:01:55,262
Это Космический Форт,
сообщение получено.
9
00:01:55,309 --> 00:01:57,778
Переключайтесь на аварийный канал,
конец связи.
10
00:01:58,543 --> 00:02:01,660
Охранный спутник в секторе "H"
прекратил функционировать.
11
00:02:01,786 --> 00:02:04,127
Отправьте бригаду техников
для реактивации.
12
00:02:04,362 --> 00:02:07,316
Сообщение получено, конец связи,
выдвигаемся.
13
00:02:14,342 --> 00:02:15,525
Смотрите, командор.
14
00:02:34,856 --> 00:02:37,629
Что с тобой?
Ты стала вампиром?
15
00:02:38,193 --> 00:02:40,747
Джон, это ты! Ты напугал меня.
16
00:02:41,005 --> 00:02:44,215
Не злись, Лоис. С каждым разом я всё больше
рискую, когда хочу встретиться с тобой.
17
00:02:44,254 --> 00:02:47,020
Мы все нервничаем. Здесь хуже,
чем в тюрьме.
18
00:02:47,271 --> 00:02:51,748
Да, ты права. Извини.
Ты же простишь меня?
19
00:03:02,990 --> 00:03:06,884
Извини, Джон, мне надо уходить.
Профессор ждёт меня внизу.
20
00:03:07,159 --> 00:03:09,550
Я пришла на минутку,
взять что-нибудь выпить.
21
00:03:09,659 --> 00:03:14,575
Профессор начинает действовать
мне на нервы.
Может, вы любовники?
-----------------------
751
01:37:53,802 --> 01:37:57,028
Приготовьтесь открыть проход
в защитной системе спутников!
752
01:38:03,108 --> 01:38:07,568
Когда думаю о всём, что случилось,
начинаю невероятно ценить жизнь!
753
01:38:09,789 --> 01:38:12,589
Сейчас мне кажется,
что я сплю, Джон.
754
01:38:13,109 --> 01:38:16,609
Это так чудесно - побывать на волоске
от смерти и остаться живой...
755
01:38:35,109 --> 01:38:39,609
Перевод на слух с англ. Severnyj
Ред. sasha20072007
май, 2013 года


Последний раз редактировалось: admin (2014-04-13 04:10), всего редактировалось 8 раз(а)
[Профиль] [ЛС]

admin ®

Пол: Мужской

Стаж: 5 лет 3 месяца

Сообщений: 4748

Откуда: Україна

Создавать темы 01-Июн-2013 09:18 (спустя 5 дней)

[Цитировать]

Третий фильм пенталогии
[Профиль] [ЛС]

admin ®

Пол: Мужской

Стаж: 5 лет 3 месяца

Сообщений: 4748

Откуда: Україна

Создавать темы 02-Июн-2013 12:12 (спустя 1 день 2 часа)

[Цитировать]

Спустя 8 лет грим андроидов и костюмы позаимствовали для робота Вертера из "Гостьи из будущего" (1985, СССР)
[Профиль] [ЛС]

Гость

Пол: Не указан

Создавать темы 27-Июл-2013 03:32 (спустя 1 месяц 24 дня)

[Цитировать]

Добавлена озвучка от Рутилова
 

Гость

Пол: Не указан

Создавать темы 14-Май-2014 15:41 (спустя 9 месяцев 18 дней)

[Цитировать]

thank you !
 

Гость

Пол: Не указан

Создавать темы 07-Дек-2015 15:58 (спустя 1 год 6 месяцев)

[Цитировать]

http://www.dvddrive-in.com/reviews/n-s/supersonicmanrobots7978.htm
тут полный кадр или на двд полнее по бокам?
 

admin ®

Пол: Мужской

Стаж: 5 лет 3 месяца

Сообщений: 4748

Откуда: Україна

Создавать темы 07-Дек-2015 16:35 (спустя 37 минут)

[Цитировать]

На двд почти такой же кассетный рип
[Профиль] [ЛС]
Быстрый ответ

Имя:

            
Для отправки сообщений необходимо включить JavaScript
Показать сообщения:    
Ответить на тему

Текущее время: 14-Дек 01:54

Часовой пояс: UTC + 3:30



Вы не можете начинать темы
Вы можете отвечать на сообщения
Вы не можете редактировать свои сообщения
Вы не можете удалять свои сообщения
Вы не можете голосовать в опросах
Вы не можете прикреплять файлы к сообщениям
Вы не можете скачивать файлы