Полярная звезда (ТВ) / Northstar (Питер Левин / Peter Levin) [1986 г., фантастика, VHSRip] ЛО (den904), СТ (kosmoaelita,Severnyj)

Ответить на тему
 
Автор Сообщение

admin ®

Пол: Мужской

Стаж: 5 лет 3 месяца

Сообщений: 4748

Откуда: Україна

Создавать темы 25-Май-2013 22:38

[Цитировать]

Полярная звезда (ТВ) / Northstar
Релиз - kosmoaelita.com
Год выпуска: 1986
Страна: США
Жанр: фантастика
Продолжительность: 01:01:23
Перевод 1: ЛО (kosmoaelita,den904 )
Перевод 2: Субтитры (kosmoaelita,Severnyj)
Режиссер: Питер Левин / Peter Levin
В ролях: Грег Эвиган, Дебора Вэйкхэм, Митч Райан, Мейсон Эдамс, Дэвид Хейуорд, Сонни Лэндэм, Робин Кертис, Ричард Гаррисон, Стивен Уильямс, Кен Фори
Описание: Подвергшись на орбите воздействию солнечной радиации, американский астронавт возвращается на Землю супергероем, обладающим сверхспособностями и высочайшим интеллектом.
Релиз

Качество: VHSRip
Формат: MKV
Видео: DivX, 1421 кбит/с, 608x432, 23.976 к/с
Аудио 1: Русский ЛО (den904) (AC3, 1 ch, 192 Кбит/с)
Аудио 2: Английский (MP3, 2 ch, 128 Кбит/с)
Субтитры : Русские (Severnyj)


Пример русских субтитров

Пример русской озвучки

Релиз

Релиз - kosmoaelita.com
Рип найден на CG
Перевод на слух с английского по заказу kosmoaelita.com - Severnyj
Ред. sasha20072007
Русская озвучка по заказу kosmoaelita.com - den904
Для Украины: рип дополнительно залит в файлохранилище
Для удаления,добавления и извлечения дорожек в mkv используйте бесплатную портативную mkvmerge GUI 6.2.0
Для присоединения потом дорожек к avi воспользуйтесь VirtualDubMod

Дополнительно

Also Known As (AKA)
Northstar - vaara avaruudessa Finland
Operación Northstar Spain (imdb display title) (Castilian title)
Tödliche Sonne West Germany

MediaInfo

Общее
Уникальный идентификатор : 205511179752471253750339690934460111340 (0x9A9C0374AE608CD2949801A9CC0259EC)
Полное имя : F:\Northstar 1986.DivX.VHSRip.Rus.kosmoaelita.mkv
Формат : Matroska
Версия формата : Version 4 / Version 2
Размер файла : 807 Мбайт
Продолжительность : 1 ч. 1 м.
Общий поток : 1838 Кбит/сек
Название фильма : ПОЛЯРНАЯ ЗВЕЗДА / Northstar, 1986г
Дата кодирования : UTC 2013-08-09 16:13:46
Программа кодирования : mkvmerge v6.3.0 ('You can't stop me!') built on Jun 28 2013 20:09:41
Библиотека кодирования : libebml v1.3.0 + libmatroska v1.4.0
Видео
Идентификатор : 1
Формат : MPEG-4 Visual
Профиль формата : Advanced Simple@L5
Параметр BVOP формата : Да
Параметр QPel формата : Нет
Параметр GMC формата : Без точки перехода
Параметр матрицы формата : Default (H.263)
Идентификатор кодека : V_MS/VFW/FOURCC / divx
Идентификатор кодека/Информация : Mainly used by Google
Идентификатор кодека/Подсказка : DivX
Продолжительность : 1 ч. 1 м.
Битрейт : 1418 Кбит/сек
Ширина : 608 пикселей
Высота : 432 пикселя
Соотношение сторон : 1,407
Режим частоты кадров : Постоянный
Частота кадров : 25,000 кадров/сек
Цветовое пространство : YUV
Субдискретизация насыщенности : 4:2:0
Битовая глубина : 8 бит
Тип развёртки : Прогрессивная
Метод сжатия : С потерями
Бит/(Пиксели*Кадры) : 0.216
Размер потока : 622 Мбайт (77%)
Заголовок : Релиз www.kosmoaelita.com
Библиотека кодирования : XviD 1.1.0 (UTC 2005-11-22)
Default : Да
Forced : Нет
Аудио #1
Идентификатор : 2
Формат : AC-3
Формат/Информация : Audio Coding 3
Расширение режима : CM (complete main)
Параметр Endianness формата : Big
Идентификатор кодека : A_AC3
Продолжительность : 1 ч. 1 м.
Вид битрейта : Постоянный
Битрейт : 192 Кбит/сек
Каналы : 2 канала
Расположение каналов : Front: L R
Частота : 48,0 КГц
Битовая глубина : 16 бит
Метод сжатия : С потерями
Размер потока : 84,3 Мбайт (10%)
Заголовок : Русский ЛО (den904 для kosmoaelita.com)
Язык : Russian
Default : Да
Forced : Нет
Аудио #2
Идентификатор : 3
Формат : AC-3
Формат/Информация : Audio Coding 3
Расширение режима : CM (complete main)
Параметр Endianness формата : Big
Идентификатор кодека : A_AC3
Продолжительность : 1 ч. 1 м.
Вид битрейта : Постоянный
Битрейт : 192 Кбит/сек
Каналы : 2 канала
Расположение каналов : Front: L R
Частота : 48,0 КГц
Битовая глубина : 16 бит
Метод сжатия : С потерями
Размер потока : 84,3 Мбайт (10%)
Язык : English
Default : Нет
Forced : Нет
Текст #1
Идентификатор : 4
Формат : VobSub
Идентификатор кодека : S_VOBSUB
Идентификатор кодека/Информация : The same subtitle format used on DVDs
Язык : Russian
Default : Да
Forced : Нет
Текст #2
Идентификатор : 5
Формат : UTF-8
Идентификатор кодека : S_TEXT/UTF8
Идентификатор кодека/Информация : UTF-8 Plain Text
Язык : Russian
Default : Нет
Forced : Нет

Пример субтитров

1
00:00:04,320 --> 00:00:11,880
Релиз
www.kosmoaelita.com
2
00:00:23,818 --> 00:00:28,258
ПОЛЯРНАЯ ЗВЕЗДА
(Northstar, 1986г)
3
00:01:39,659 --> 00:01:42,238
Хьюстон, мы на месте,
ожидаем затмения.
4
00:01:43,715 --> 00:01:46,170
Начинаю отсчёт, 15 секунд.
5
00:01:46,853 --> 00:01:52,040
Это Хьюстон, траектория движения
выбрана верно, место тоже,
осталась 1 минута.
6
00:01:52,331 --> 00:01:54,332
11, 10...
7
00:01:54,371 --> 00:01:55,491
35000 футов в секунду.
8
00:01:55,541 --> 00:02:01,344
...9, 8, 7, 6, 5...
9
00:02:01,389 --> 00:02:02,954
Отключаюсь.
10
00:02:03,063 --> 00:02:06,055
...4, 3, 2, 1...
11
00:02:06,183 --> 00:02:14,054
Скорость 35570 футов в секунду.
Высота 177 миль.
12
00:02:14,875 --> 00:02:17,215
- Майор Норт готов?
- Так точно.
13
00:02:17,332 --> 00:02:19,332
Все готово к операции.
14
00:02:23,193 --> 00:02:25,435
Проверь, как там Норт,
он ведь твой лучший друг.
15
00:02:25,655 --> 00:02:30,450
- Уже проверил, а ты как, держишься?
- Вполне, ничего непоправимого.
16
00:02:36,917 --> 00:02:44,295
Вот она и идёт...
Всё хорошо...
17
00:02:45,185 --> 00:02:49,960
Куколка моя, эта зима тянулась
так долго!
18
00:02:50,177 --> 00:02:57,046
Парни, это что-то...
Она большая, круглая и горячая!
19
00:02:57,401 --> 00:02:58,801
Всё в порядке!
20
00:03:01,663 --> 00:03:03,483
Им это понравится!
---------------------------
621
00:59:16,991 --> 00:59:18,521
Простите, мы лишь проезжаем мимо.
622
00:59:18,765 --> 00:59:19,886
Ура!
623
01:00:15,000 --> 01:00:19,000
Перевод на слух с англ. Severnyj
Ред. sasha20072007
май, 2013 года


Последний раз редактировалось: admin (2013-08-09 19:26), всего редактировалось 3 раз(а)
[Профиль] [ЛС]

bot

Создавать темы 28-Май-2013 22:43 (спустя 3 дня)

Топик был перенесен из форума Тестовый в форум Новые релизы kosmoaelita.com

admin2
 

Гость

Пол: Не указан

Создавать темы 09-Авг-2013 19:42 (спустя 2 месяца 14 дней)

[Цитировать]

Добавлена озвучка от den904
 
Быстрый ответ

Имя:

            
Для отправки сообщений необходимо включить JavaScript
Показать сообщения:    
Ответить на тему

Текущее время: 14-Дек 01:56

Часовой пояс: UTC + 3:30



Вы не можете начинать темы
Вы можете отвечать на сообщения
Вы не можете редактировать свои сообщения
Вы не можете удалять свои сообщения
Вы не можете голосовать в опросах
Вы не можете прикреплять файлы к сообщениям
Вы не можете скачивать файлы