Нексус 2.431 / Nexus 2.431 (Хосе Мария Форке / José María Forqué) [1994 г., фантастика, VHSRip] ЛО (Алексей Багичев)

Reply to topic
 
Author Message

admin ®

Gender: Male

Longevity: 8 years

Posts: 4794

Post 25-May-2013 10:23

[Quote]

Нексус 2.431 / Nexus 2.431
Год выпуска: 1994
Страна: США
Жанр: фантастика
Продолжительность: 01:35:05
Перевод: Любительский (одноголосый) Алексей Багичев
Режиссер: Хосе Мария Форке / José María Forqué
В ролях: Оливер Тобиас, Джереми Гилли, Оона Кирш, Кристина Хоянес, Струан Роджер, Давид Прахарж, Яна Швандова, Ян Прюсил, Мирослав Таборски, Ян Каниза
Описание: В Будущем Земля стала загрязненной и погибает Космический корабль с последними людьми отправляются на планету Торн где ее правитель выделяет им место для жительства в центре пустыни Постепенно он начинает борзеть и в результате провоцирует восстание землян которое заканчиваеться для него весьма плачевно
Релиз

Качество: VHSRip
Формат: AVI
Видео: xviD, 1866 кбит/с, 620x476, 23.976 к/с
Аудио 1: Русский ЛО Багичев (AC3, 2 ch, 192 Кбит/с)
Аудио 2: Английский (AC3, 2 ch, 192 Кбит/с)


Релиз

Релиз videodemons.com
Русский релиз увидел свет благодаря: Annihilator, PanSabotage, monk108, Arias, AlexNever, SilverBeast, e-ball, redfoxalice, punk and destroy
Перевод и озвучка: Алексей Багичев
Для Украины: рип дополнительно залит в файлохранилище
Для удаления,добавления и извлечения дорожек в mkv используйте бесплатную портативную mkvmerge GUI 6.2.0
Для присоединения потом дорожек к avi воспользуйтесь VirtualDubMod

Дополнительно

Отзывы

punk and destroy » 21 апр 2013, 17:52
Начал смотреть фильм. Вынужденно нажал на паузу при просмотре титров, удивлённый тем, что фильм поставлен по сюжету Хуана Пике Симона (кто такой, думаю, местным жанрофилам объяснять не надо). И каково же было моё удивление, когда я залез в фильмографию режиссёра:
http://www.imdb.com/name/nm0286578/
Оказывается, он снял Nexus в 71 год и через год умер, а вообще он снимал фильмы с 47го года, снял их 53 штуки в самых разных жанрах (как показалось, в основном он работал с семейным кино). Такое вот микроисследование, хм.
Пока не досмотрел, но фильм отличный. Люблю, когда при небольшом бюджете делаются попытки реализовать достаточно навороченные эффекты. Рискну поставить данную работу в один ряд с Battle for the Lost Planet Пайпера и Despiser Кука. Правда, сверхромантичный главный герой очень раздражает, но, возможно, к фильму просто хотели привлечь толпы домохозяек для увеличения прибыли. смайлик+)

MediaInfo

Общее
Полное имя : F:\Нексус 2.431\Нексус 2.431 (1994).avi
Формат : AVI
Формат/Информация : Audio Video Interleave
Размер файла : 1,50 Гбайт
Продолжительность : 1 ч. 35 м.
Общий поток : 2265 Кбит/сек
Программа кодирования : VirtualDubMod 1.5.10.3 (build 2550/release)
Библиотека кодирования : VirtualDubMod build 2550/release
Видео
Идентификатор : 0
Формат : MPEG-4 Visual
Профиль формата : Advanced Simple@L5
Параметр BVOP формата : 1
Параметр QPel формата : Нет
Параметр GMC формата : Без точки перехода
Параметр матрицы формата : Выборочная
Идентификатор кодека : XVID
Идентификатор кодека/Подсказка : XviD
Продолжительность : 1 ч. 35 м.
Битрейт : 1866 Кбит/сек
Ширина : 620 пикселей
Высота : 476 пикселей
Соотношение сторон : 4:3
Частота кадров : 23,976 кадра/сек
Частота кадров в оригинале : 25,000 кадров/сек
Цветовое пространство : YUV
Субдискретизация насыщенности : 4:2:0
Битовая глубина : 8 бит
Тип развёртки : Прогрессивная
Метод сжатия : С потерями
Бит/(Пиксели*Кадры) : 0.264
Размер потока : 1,24 Гбайт (82%)
Библиотека кодирования : XviD 1.2.1 (UTC 2008-12-04)
Аудио #1
Идентификатор : 1
Формат : AC-3
Формат/Информация : Audio Coding 3
Расширение режима : CM (complete main)
Параметр Endianness формата : Big
Идентификатор кодека : 2000
Продолжительность : 1 ч. 35 м.
Вид битрейта : Постоянный
Битрейт : 192 Кбит/сек
Каналы : 2 канала
Расположение каналов : Front: L R
Частота : 48,0 КГц
Битовая глубина : 16 бит
Метод сжатия : С потерями
Размер потока : 131 Мбайт (8%)
Выравнивание : Разделение по промежуткам
Продолжительность промежутка : 42 мс. (1,00 видеокадр)
Время предзагрузки промежутка : 500 мс.
Аудио #2
Идентификатор : 2
Формат : AC-3
Формат/Информация : Audio Coding 3
Расширение режима : CM (complete main)
Параметр Endianness формата : Big
Идентификатор кодека : 2000
Продолжительность : 1 ч. 35 м.
Вид битрейта : Постоянный
Битрейт : 192 Кбит/сек
Каналы : 2 канала
Расположение каналов : Front: L R
Частота : 48,0 КГц
Битовая глубина : 16 бит
Метод сжатия : С потерями
Размер потока : 131 Мбайт (8%)
Выравнивание : Разделение по промежуткам
Продолжительность промежутка : 42 мс. (1,00 видеокадр)
Время предзагрузки промежутка : 500 мс.

Скриншоты





Скринлист

Файл дополнительно залит на ОБЛАКО


Last edited by admin on 2013-05-25 11:28; edited 2 times in total
[Profile] [PM]

bot

Post 25-May-2013 10:48 (after 24 minutes)

Топик был перенесен из форума Тестовый в форум 1990-1999г. Эпоха новых технологий

admin2
 
Display posts:    
Reply to topic

Current time is: 25-Sep 03:53

All times are UTC + 3



You cannot post new topics in this forum
You cannot reply to topics in this forum
You cannot edit your posts in this forum
You cannot delete your posts in this forum
You cannot vote in polls in this forum
You cannot attach files in this forum
You cannot download files in this forum