Акциум Максимус / Actium Maximus (Video) (Марк Хикс / Mark Hicks) [2005 г., handmade SciFi, VHSRip] ЛО (iDimo), СТ (Severnyj)

Reply to topic
 
Author Message

admin ®

Gender: Male

Longevity: 7 years 9 months

Posts: 4799

Post 24-May-2013 18:52

[Quote]

Акциум Максимус / Actium Maximus (Video)
Релиз videodemons.com
Год выпуска: 2005
Страна: США, студия Troma
Жанр: handmade SciFi
Продолжительность: 01:17:57
Перевод 1: ЛО (iDimo)
Перевод 2: Субтитры (Severnyj)
Режиссер: Марк Хикс / Mark Hicks
В ролях: Johnathan Daniel McCuin ... Polpox (as John McCuin)
Mark Hicks ... Jacinlun Axezun
Jennifer Hamil ... Pratalls (as Jennifer Hamill)
David Matt Duncan ... Qava
Selwyn Findley ... Geserix
Thurlo T. Cobb ... Terrortons
Butler Yates ... Narrator
Lyndsey McIntyre ... (as Lindsey McIntyre)
Описание: Карнавал Акциум Максимус поздравляет вас с открытием очередного волнующего сезона. Вас ждут несколько цирков и увлекательные игры, труппы необычайно разнообразны по составу. Зрители получат то, чего ждали, а ставки будут высоки, как никогда. С открытием Акциум Максимуса вас, конечно, ждёт и первая ночь карнавала, с танцами в исполнении титанидонов. Каждый год титанидонов выпускают свободно разгуливать по бульвару Полпокса, где они бегут по улице среди отважных любителей острых ощущений, через дворец прямо в Акциум Максимус
Релиз

Качество: VHSRip
Формат: MKV
Видео: x264, 2312 кбит/с, 720x544, 23.976 к/с
Аудио 1: Русский (iDimo)(AC3, 2 ch, 192 Кбит/с)
Аудио 2: Английский (AC3, 2 ch, 192 Кбит/с)
Субтитры : Русские (Severnyj)


Русские субтитры и озвучка

Релиз

Релиз videodemons.com
Рип - sasha20072007
Субтитры - Severnyj
Озвучка - iDimo
Для Украины: рип дополнительно залит в файлохранилище
Для удаления,добавления и извлечения дорожек в mkv используйте бесплатную портативную mkvmerge GUI 6.2.0
Для присоединения потом дорожек к avi воспользуйтесь VirtualDubMod

Дополнительно

MediaInfo

Общее
Уникальный идентификатор : 218713827531588524570174556646101855435 (0xA48AC03F88E4A503BAB3E9B86C3DACCB)
Полное имя : F:\Actium Maximus 2005.x264.VHSRip.mkv
Формат : Matroska
Версия формата : Version 4 / Version 2
Размер файла : 1,47 Гбайт
Продолжительность : 1 ч. 17 м.
Общий поток : 2697 Кбит/сек
Название фильма : Actium Maximus / 2005
Дата кодирования : UTC 2013-05-24 15:29:12
Программа кодирования : mkvmerge v6.2.0 ('Promised Land') built on Apr 28 2013 12:22:01
Библиотека кодирования : libebml v1.3.0 + libmatroska v1.4.0
Attachment : Yes
Видео
Идентификатор : 1
Формат : AVC
Формат/Информация : Advanced Video Codec
Профиль формата : High@L4.1
Параметр CABAC формата : Да
Параметр ReFrames формата : 8 кадров
Идентификатор кодека : V_MPEG4/ISO/AVC
Продолжительность : 1 ч. 17 м.
Битрейт : 2312 Кбит/сек
Ширина : 720 пикселей
Высота : 544 пикселя
Соотношение сторон : 4:3
Режим частоты кадров : Постоянный
Частота кадров : 23,976 кадра/сек
Цветовое пространство : YUV
Субдискретизация насыщенности : 4:2:0
Битовая глубина : 8 бит
Тип развёртки : Прогрессивная
Бит/(Пиксели*Кадры) : 0.246
Размер потока : 1,23 Гбайт (84%)
Библиотека кодирования : x264 core 125 r2208 d9d2288
Настройки программы : cabac=1 / ref=8 / deblock=1:-2:-2 / analyse=0x3:0x133 / me=umh / subme=10 / psy=1 / psy_rd=1.00:0.25 / mixed_ref=1 / me_range=24 / chroma_me=1 / trellis=2 / 8x8dct=1 / cqm=0 / deadzone=6,6 / fast_pskip=1 / chroma_qp_offset=-4 / threads=4 / lookahead_threads=1 / sliced_threads=0 / nr=0 / decimate=0 / interlaced=0 / bluray_compat=0 / constrained_intra=0 / bframes=8 / b_pyramid=2 / b_adapt=2 / b_bias=0 / direct=3 / weightb=1 / open_gop=0 / weightp=2 / keyint=220 / keyint_min=22 / scenecut=40 / intra_refresh=0 / rc_lookahead=60 / rc=2pass / mbtree=1 / bitrate=2312 / ratetol=1.0 / qcomp=0.80 / qpmin=0 / qpmax=69 / qpstep=4 / cplxblur=20.0 / qblur=0.5 / vbv_maxrate=17500 / vbv_bufsize=14000 / nal_hrd=none / ip_ratio=1.10 / aq=1:0.50
Default : Да
Forced : Нет
Основные цвета : BT.601 NTSC
Характеристики трансфера : BT.601
Коэффициенты матрицы : BT.601
Аудио #1
Идентификатор : 2
Формат : AC-3
Формат/Информация : Audio Coding 3
Расширение режима : CM (complete main)
Параметр Endianness формата : Big
Идентификатор кодека : A_AC3
Продолжительность : 1 ч. 17 м.
Вид битрейта : Постоянный
Битрейт : 192 Кбит/сек
Каналы : 2 канала
Расположение каналов : Front: L R
Частота : 48,0 КГц
Битовая глубина : 16 бит
Метод сжатия : С потерями
Размер потока : 107 Мбайт (7%)
Заголовок : Русский ЛО (iDimo)
Язык : Russian
Default : Да
Forced : Нет
Аудио #2
Идентификатор : 3
Формат : AC-3
Формат/Информация : Audio Coding 3
Расширение режима : CM (complete main)
Параметр Endianness формата : Big
Идентификатор кодека : A_AC3
Продолжительность : 1 ч. 17 м.
Вид битрейта : Постоянный
Битрейт : 192 Кбит/сек
Каналы : 2 канала
Расположение каналов : Front: L R
Частота : 48,0 КГц
Битовая глубина : 16 бит
Метод сжатия : С потерями
Размер потока : 107 Мбайт (7%)
Язык : English
Default : Нет
Forced : Нет
Текст
Идентификатор : 4
Формат : UTF-8
Идентификатор кодека : S_TEXT/UTF8
Идентификатор кодека/Информация : UTF-8 Plain Text
Заголовок : Русский (Severnyj)
Язык : Russian
Default : Да
Forced : Нет

Пример субтитров

1
00:00:44,662 --> 00:00:49,087
Акциум Максимус
2
00:03:32,708 --> 00:03:36,420
Акциум Максимус
3
00:03:49,295 --> 00:03:54,647
Колония Акциум
4
00:05:08,849 --> 00:05:14,883
Ясиниум Акцезун.
Верховный-турор.
5
00:05:31,130 --> 00:05:33,122
Я разве не говорил,
чтобы вы достали этому...
6
00:05:33,123 --> 00:05:35,439
...ретаризавру-переростку ещё одну
самку до конца недели?
7
00:05:35,742 --> 00:05:38,064
Если каждую неделю не давать
ему по самке, он может...
8
00:05:38,066 --> 00:05:40,645
...умереть, а Великий Бездушный
заплатил за него 20 миллионов!
9
00:05:41,052 --> 00:05:48,036
Коламинатор номер 73 убил
последнюю самку, которую...
10
00:05:48,038 --> 00:05:55,153
...мы ему дали, а новых не будет
ещё две луны.
11
00:05:55,640 --> 00:06:05,770
Турор! Второй раунд скоро начнётся,
а эта самка-белатонка ещё не на 1-м уровне.
12
00:06:05,815 --> 00:06:08,878
Мне что, самому здесь всё надо делать?
Я говорил Девиниану заняться этим!
13
00:06:29,554 --> 00:06:33,375
Карнавал Акциум Максимус поздравляет
вас с открытием очередного волнующего сезона,
14
00:06:33,404 --> 00:06:36,482
Вас ждут несколько цирков и увлекательные
игры, труппы необычайно разнообразны по составу.
15
00:06:36,537 --> 00:06:40,746
Зрители получат то, чего ждали,
а ставки будут высоки, как никогда.
16
00:06:46,871 --> 00:06:50,125
С открытием Акциум Максимуса
вас, конечно, ждёт и первая...
17
00:06:50,126 --> 00:06:53,042
...ночь карнавала, с танцами
в исполнении титанидонов.
18
00:06:53,108 --> 00:06:57,244
Каждый год титанидонов выпускают свободно
разгуливать по бульвару Полпокса,
19
00:06:57,329 --> 00:07:00,729
где они бегут по улице среди
отважных любителей острых...
------------------------
509
01:13:18,434 --> 01:13:25,861
Думаю, сейчас я отправлюсь
в свои покои...
510
01:13:25,862 --> 01:13:36,398
Возбуждение по поводу карнавала
истощило мою внутреннюю систему.
511
01:14:15,886 --> 01:14:22,233
Продолжение следует...
Файл дополнительно залит на ОБЛАКО


Last edited by admin on 2013-05-25 19:49; edited 2 times in total
[Profile] [PM]

bot

Post 24-May-2013 19:23 (after 30 minutes)

Топик был перенесен из форума Тестовый в форум 2000-2005г. Эпоха зрелищности, бесконечных сиквелов и трэша

admin
 

admin ®

Gender: Male

Longevity: 7 years 9 months

Posts: 4799

Post 24-May-2013 19:23 (after 30 minutes)

[Quote]

Фильм не для средних умов!!!
[Profile] [PM]

Guest

Gender: Unknown

Post 24-May-2013 19:29 (after 5 minutes)

[Quote]

По сути, это навороченный НФ-рассказ с непростым визуальным фоном. смайлик+
 

admin ®

Gender: Male

Longevity: 7 years 9 months

Posts: 4799

Post 24-May-2013 19:31 (after 2 minutes)

[Quote]

Слишком непростой bm
На трезвую голову, наверное, пока не стану смотреть ca
[Profile] [PM]

Guest

Gender: Unknown

Post 03-Jun-2013 20:49 (after 10 days)

[Quote]

Кгм.У него что еще , продолжение есть ? 01
 

admin ®

Gender: Male

Longevity: 7 years 9 months

Posts: 4799

Post 04-Jun-2013 00:17 (after 3 hours)

[Quote]

Вроде, нет.
[Profile] [PM]

Guest

Gender: Unknown

Post 04-Jun-2013 20:02 (after 19 hours)

[Quote]

Исправлены огрехи озвучки
 
Display posts:    
Reply to topic

Current time is: 04-Jun 20:37

All times are UTC + 3



You cannot post new topics in this forum
You cannot reply to topics in this forum
You cannot edit your posts in this forum
You cannot delete your posts in this forum
You cannot vote in polls in this forum
You cannot attach files in this forum
You cannot download files in this forum