Потерянный в банке памяти (ТВ) / Overdrawn at the Memory Bank (Дуглас Уильямс) [1983 г., фантастика, VHSRip] СТ (kosmoaelita,Severnyj)

Reply to topic
 
Author Message

admin ®

Gender: Male

Longevity: 7 years 3 months

Posts: 4812

Post 22-May-2013 22:06

[Quote]

Потерянный в банке памяти (ТВ) / Overdrawn at the Memory Bank
Релиз - kosmoaelita. com
Год выпуска: 1983
Страна: США, Канада
Жанр: фантастика
Продолжительность: 01:23:37
Перевод: Субтитры (kosmoaelita,Severnyj)
Режиссер: Дуглас Уильямс
В ролях: Линда Гриффитс, Рауль Хулиа, Дональд Мур, Ванда Кэннон, Helen Carscallen, Рекс Хэгон, Патрик Бример, Шапель Джаффе, Денис Пиджон, Банти УэббФильм вошел в состав "American Playhouse: Season 4, Episode 8"Описание: Арам Фингал, очень сообразительный программист и невероятно уставший человек, работающий на Новикорп, мегакорпорацию, существующую где-то в будущем. Когда его ловят за просмотром "Касабланки" в рабочее время, Фингала заставляют пройти принудительную реабилитацию под названием "допплинг". Сознание пациентов-допплеров помещается в тело животных, чтобы они по новому взглянули на жизнь. Однако тело Фингала благодаря шутке школьника теряется и его сознание переносят в компьютер на время поисков. С помощью Аполлонии Джеймс, медицинского техника, которую играет Линда Гриффитс, Фингалу удаётся создать виртуальную реальность по мотивам старого фильма "Касабланка". Впоследствии он получает доступ к компьютерам Новикорпа, управляющим финансами и наводит в компании суматоху. Но главная проблема Фингала заключается в том, что он должен успеть вернуться в свое тело до того, как сотрется его память...
Релиз

Качество: VHSRip
Формат: MKV
Видео: MPEG4 Video (H264) 1280x720 59.94fps 3273 kb/s
Аудио: Английский (Dolby AC3 48000Hz stereo 160kbps)
Субтитры : Русские (Severnyj)

Релиз

Релиз kosmoaelita.com
Рип найден на синемагеддоне
Перевод на слух с англ. по заказу kosmoaelita.com - Severnyj
Для Украины: рип и оригинальный ДВД дополнительно залиты в файлохранилище
Для удаления,добавления и извлечения дорожек в mkv используйте бесплатную портативную mkvmerge GUI 6.2.0
Для присоединения потом дорожек к avi воспользуйтесь VirtualDubMod

Дополнительно

слоган «Caught in a future world, his only escape is back in time.»
http://en.wikipedia.org/wiki/Overdrawn_at_the_Memory_Bank

Рецензия

MediaInfo

General
Unique ID : 147666274880301188783703754703394075426 (0x6F177D745CEF4CFD0FA841A9562C7322)
Complete name : Overdrawn.at.the.Memory.Bank.1983.VHSRip.Eng.RusSub.kosmoaelita.com.mkv
Format : Matroska
Format version : Version 4
File size : 2.01 GiB
Duration : 1 h 23 min
Overall bit rate : 3 437 kb/s
Encoded date : UTC 2019-09-16 15:38:21
Writing application : mkvmerge v35.0.0 ('All The Love In The World') 64-bit
Writing library : libebml v1.3.9 + libmatroska v1.5.2
Video
ID : 1
Format : AVC
Format/Info : Advanced Video Codec
Format profile : High@L4
Format settings : CABAC / 4 Ref Frames
Format settings, CABAC : Yes
Format settings, Reference fra : 4 frames
Codec ID : V_MPEG4/ISO/AVC
Duration : 1 h 23 min
Bit rate : 3 273 kb/s
Width : 1 280 pixels
Height : 720 pixels
Display aspect ratio : 16:9
Frame rate mode : Constant
Frame rate : 59.940 (60000/1001) FPS
Color space : YUV
Chroma subsampling : 4:2:0
Bit depth : 8 bits
Scan type : Progressive
Bits/(Pixel*Frame) : 0.059
Stream size : 1.91 GiB (95%)
Title : Overdrawn at the Memory Bank
Writing library : x264 core 146 r2538 121396c
Encoding settings : cabac=1 / ref=3 / deblock=1:0:0 / analyse=0x3:0x113 / me=hex / subme=7 / psy=1 / psy_rd=1.00:0.00 / mixed_ref=1 / me_range=16 / chroma_me=1 / trellis=1 / 8x8dct=1 / cqm=0 / deadzone=21,11 / fast_pskip=1 / chroma_qp_offset=-2 / threads=12 / lookahead_threads=2 / sliced_threads=0 / nr=0 / decimate=1 / interlaced=0 / bluray_compat=0 / constrained_intra=0 / bframes=3 / b_pyramid=2 / b_adapt=1 / b_bias=0 / direct=1 / weightb=1 / open_gop=0 / weightp=2 / keyint=599 / keyint_min=59 / scenecut=40 / intra_refresh=0 / rc_lookahead=40 / rc=crf / mbtree=1 / crf=16.0 / qcomp=0.60 / qpmin=0 / qpmax=69 / qpstep=4 / vbv_maxrate=25000 / vbv_bufsize=31250 / crf_max=0.0 / nal_hrd=none / filler=0 / ip_ratio=1.40 / aq=1:1.00
Language : English
Default : Yes
Forced : No
Audio
ID : 2
Format : AC-3
Format/Info : Audio Coding 3
Commercial name : Dolby Digital
Codec ID : A_AC3
Duration : 1 h 23 min
Bit rate mode : Constant
Bit rate : 160 kb/s
Channel(s) : 2 channels
Channel layout : L R
Sampling rate : 48.0 kHz
Frame rate : 31.250 FPS (1536 SPF)
Bit depth : 16 bits
Compression mode : Lossy
Delay relative to video : -33 ms
Stream size : 95.7 MiB (5%)
Language : English
Service kind : Complete Main
Default : Yes
Forced : No
Text
ID : 3
Format : UTF-8
Codec ID : S_TEXT/UTF8
Codec ID/Info : UTF-8 Plain Text
Duration : 1 h 21 min
Bit rate : 123 b/s
Count of elements : 883
Stream size : 73.7 KiB (0%)
Title : Русский (Severnyj для kosmoaelita.com)
Language : Russian
Default : Yes
Forced : No

Пример субтитров

1
00:00:02,846 --> 00:00:06,203
Релиз
www.kosmoaelita.com
2
00:00:27,846 --> 00:00:33,203
Откуда мне было знать, что 276-й день
окажется таким безумным?
3
00:00:33,314 --> 00:00:35,977
Моя жизнь в качестве компьютерного техника
была простой и спокойной.
4
00:00:36,274 --> 00:00:39,074
Но это было до встречи
с Арамом Фингалом...
5
00:00:41,629 --> 00:00:46,518
Меня зовут Аполлония Джеймс.
Я работаю в деревне Нирвана,
слежу за допплерами.
6
00:00:47,368 --> 00:00:51,079
Помню, как подумала, что Фингал
не похож на тех,
кто стал бы заниматься допплингом.
7
00:00:52,175 --> 00:00:54,975
У него такие необычные глаза...
8
00:01:03,099 --> 00:01:07,170
Как выяснилось позже, после допплинга
Фингала всё пошло не так.
(*Допплинг - перенесение личности в другое тело*)
9
00:01:07,988 --> 00:01:12,933
Он лишился тела...
А я чуть не лишилась рассудка.
10
00:01:47,988 --> 00:01:51,933
American Playhouse:
Season 4, Episode 8
11
00:01:52,597 --> 00:01:55,444
"Потерянный в Банке Памяти"
(Overdrawn at the Memory Bank, 1985г)
12
00:02:09,560 --> 00:02:17,266
С сегодняшнего рабочего дня
Новикорп повышает стоимость услуг на 4%.
13
00:02:17,952 --> 00:02:20,752
Посмотрим, что на это скажут в Лексикорпе.
14
00:02:21,080 --> 00:02:30,942
Мы победим! Новикорп - коммуникации.
А коммуникации - цивилизация.
15
00:02:51,924 --> 00:02:55,307
Внимание всем сотрудникам
международного отдела!
16
00:02:55,308 --> 00:02:58,621
В Иркутске прекратилась
подача атомной энергии.
17
00:02:58,828 --> 00:03:01,875
Проблемы с Фингалом начались
за день до нашей встречи.
18
00:03:02,141 --> 00:03:06,236
Он работал в отделе потоков данных
Новикорпа, обработчиком третьего класса.
19
00:03:06,563 --> 00:03:08,863
У него была ужасная работа.
20
00:03:08,970 --> 00:03:12,701
Мониторинг однообразных данных
по глобальному контролю над климатом.
21
00:03:14,570 --> 00:03:17,201
"Warner Bros. Pictures
представляет... "
22
00:03:19,300 --> 00:03:24,039
Фингал решил, что перехитрил Систему
поэтому тратил своё время на нечто другое.
------------------------
888
01:20:53,539 --> 01:20:55,639
Подожди, это займёт всего секунду.
889
01:21:11,379 --> 01:21:13,802
"Хамфри Богарт, Ингрид Бергман,
Пол Хенрейд... "
890
01:21:36,200 --> 01:21:40,502
"Потерянный в Банке Памяти"
891
01:21:43,200 --> 01:21:47,502
Перевод на слух с англ. Severnyj
Ред. sasha20072007
май, 2013 года

Скриншоты








Last edited by admin on 2013-05-24 19:32; edited 12 times in total
[Profile] [PM]

Guest

Gender: Unknown

Post 22-May-2013 22:48 (after 42 minutes)

[Quote]

Отлично. Ещё с конца 90ых хочу его посмотреть. Хотя, может, фильм и не очень хорош. смайлик+
Это экранизация рассказа Джона Варли (1976) - http://fantlab.ru/work34898 .
 

admin ®

Gender: Male

Longevity: 7 years 3 months

Posts: 4812

Post 22-May-2013 22:54 (after 5 minutes)

[Quote]

Фильм очень даже ничего, несмотря на то, что это лишь одна из частей "American Playhouse:
Season 4, Episode 8"
[Profile] [PM]

Darth_47

Gender: Male

Longevity: 7 months 5 days

Posts: 403

Post 16-Sep-2019 19:07 (after 6 years 3 months)

[Quote]

Раздача восстановлена. Качество видео улучшено по сравнению со старой версией.
[Profile] [PM]
Quick Reply

Name:

            
Heads necessary to send messages to enable JavaScript
Display posts:    
Reply to topic

Current time is: 11-Dec 14:10

All times are UTC + 3



You cannot post new topics in this forum
You can reply to topics in this forum
You cannot edit your posts in this forum
You cannot delete your posts in this forum
You cannot vote in polls in this forum
You cannot attach files in this forum
You cannot download files in this forum