Питер в волшебной стране (ТВ) / Peterchen's Mondfahrt (TV) (Герхард Ф. Херинг) [1959 г., фантастика, фэнтези, семейный, BDRip-1080р] БЕЗ ПЕРЕВОДА

Reply to topic
DL-List and Torrent activity
Size:  4.1 GB   |    Registered:  6 years   |    Completed:  0 times

Seeder not seen: 4 years 8 months

 
   
 
 
 
Author Message

Guest ®

Gender: Unknown

Post 19-May-2013 18:38

[Quote]

Питер в волшебной стране (ТВ) / Peterchen's Mondfahrt (TV)
Год выпуска: 1959
Страна: Германия (ФРГ)
Жанр: фантастика, фэнтези, семейный
Продолжительность: 01:44:44
Перевод: Отсутствует
Режиссер: Герхард Ф. Херинг
В ролях: Frank von dem Bottlenberg, Cora von dem Bottlenberg, Irmgard Först, Тилла Хоман, Эльза Кнотт, Horst Butschke, Dirk Dautzenberg, Лола Мютель, Марго Тругер, Hans Müller-Westernhagen
Описание: Жили-были маленький Питер и его сестра Анна-Лиза. Однажды они познакомились с майским жуком, у которого было 5 ножек вместо шести. А шестую ножку жук потерял на Луне. И только брат с сестрой, которые никогда в жизни не мучили животных, могут отправиться на Луну и помочь ему. Питер и Анна-Лиза срочно учатся летать, ведь случай полететь на Луну может представиться только один раз. И вот время пришло!
Качество: BDRip-1080р
Формат: MKV
Видео: x264, 5113 кбит/с, 1432x1080, 23.976 к/с, crf=18
Аудио: Немецкий (AC3, 2 ch, 384 Кбит/с)


Семпл

Релиз

Для Украины: рип и оригинальный блю-рэй дополнительно залиты в файлохранилище
Для удаления,добавления и извлечения дорожек в mkv используйте бесплатную портативную mkvmerge GUI 6.2.0

MediaInfo

Общее
Уникальный идентификатор : 220997999867760983116216576269607227696 (0xA642AAA3A4B87587B3A1D7B76267D130)
Полное имя : F:\Peterchen's Mondfahrt 1959 1080p GER.mkv
Формат : Matroska
Версия формата : Version 4 / Version 2
Размер файла : 4,10 Гбайт
Продолжительность : 1 ч. 44 м.
Общий поток : 5608 Кбит/сек
Дата кодирования : UTC 2013-02-24 20:49:44
Программа кодирования : mkvmerge v6.0.0 ('Coming Up For Air') built on Feb 3 2013 18:12:30
Библиотека кодирования : libebml v1.3.0 + libmatroska v1.4.0
Attachment : Yes
Видео
Идентификатор : 1
Формат : AVC
Формат/Информация : Advanced Video Codec
Профиль формата : High@L4.1
Параметр CABAC формата : Да
Параметр ReFrames формата : 5 кадров
Идентификатор кодека : V_MPEG4/ISO/AVC
Продолжительность : 1 ч. 44 м.
Битрейт : 5113 Кбит/сек
Ширина : 1432 пикселя
Высота : 1080 пикселей
Соотношение сторон : 4:3
Режим частоты кадров : Постоянный
Частота кадров : 25,000 кадров/сек
Цветовое пространство : YUV
Субдискретизация насыщенности : 4:2:0
Битовая глубина : 8 бит
Тип развёртки : Прогрессивная
Бит/(Пиксели*Кадры) : 0.132
Размер потока : 3,74 Гбайт (91%)
Библиотека кодирования : x264 core 125 r2208 d9d2288
Настройки программы : cabac=1 / ref=5 / deblock=1:-2:-1 / analyse=0x3:0x133 / me=umh / subme=11 / psy=1 / psy_rd=0.95:0.15 / mixed_ref=1 / me_range=24 / chroma_me=1 / trellis=2 / 8x8dct=1 / cqm=0 / deadzone=21,11 / fast_pskip=1 / chroma_qp_offset=-3 / threads=4 / lookahead_threads=1 / sliced_threads=0 / nr=0 / decimate=1 / interlaced=0 / bluray_compat=0 / constrained_intra=0 / bframes=10 / b_pyramid=2 / b_adapt=2 / b_bias=0 / direct=1 / weightb=1 / open_gop=0 / weightp=2 / keyint=220 / keyint_min=22 / scenecut=40 / intra_refresh=0 / rc_lookahead=60 / rc=crf / mbtree=1 / crf=18.0 / qcomp=0.60 / qpmin=0 / qpmax=69 / qpstep=4 / vbv_maxrate=17500 / vbv_bufsize=14000 / crf_max=0.0 / nal_hrd=none / ip_ratio=1.25 / aq=1:0.90
Default : Да
Forced : Нет
Основные цвета : BT.709
Характеристики трансфера : BT.709
Коэффициенты матрицы : BT.709
Аудио
Идентификатор : 2
Формат : AC-3
Формат/Информация : Audio Coding 3
Расширение режима : CM (complete main)
Параметр Endianness формата : Big
Идентификатор кодека : A_AC3
Продолжительность : 1 ч. 44 м.
Вид битрейта : Постоянный
Битрейт : 384 Кбит/сек
Каналы : 2 канала
Расположение каналов : Front: L R
Частота : 48,0 КГц
Битовая глубина : 16 бит
Метод сжатия : С потерями
Размер потока : 288 Мбайт (7%)
Язык : German
Default : Да
Forced : Нет

Скриншоты



Peterchen's Mondfahrt 1959 1080p GER.mkv.torrent
 GOLD TORRENT! DOWNLOAD TRAFFIC DOES NOT CONSIDER! 
Torrent: Registered [ 2013-05-19 18:38 ]

Download .torrent

Download

41 KB

Status: checked
Completed: 0 times
Size: 4.1 GB
 
 

Guest ®

Gender: Unknown

Post 09-Dec-2015 08:07 (after 2 years 6 months)

[Quote]

нужны субтитры?
 

Djon88SS

Gender: Male

Longevity: 5 years 5 months

Posts: 750

Post 09-Dec-2015 19:41 (after 11 hours)

[Quote]

Это бы озвучить стоило.
[Profile] [PM]
Display posts:    
Reply to topic

Current time is: 26-May 22:21

All times are UTC + 3



You cannot post new topics in this forum
You cannot reply to topics in this forum
You cannot edit your posts in this forum
You cannot delete your posts in this forum
You cannot vote in polls in this forum
You cannot attach files in this forum
You can download files in this forum