Хроника / The Chronicle / News from the Edge / Сезон: 1 / Серии: 1-22 (22) (Сэнфорд Букставер, Адам Дэвидсон, Кришна Рао) [2001-2002, Фантастика, ужасы, комедия, SATRip] VO Владимир Воронцов Original

Reply to topic
 
Author Message

admin ®

Gender: Male

Longevity: 9 years 8 months

Posts: 4694

Post 05-Sep-2012 22:29

[Quote]

Хроника / The Chronicle / News from the Edge
Год выпуска: 2001-2002
Страна: США, Stargate Films Inc.
Жанр: Фантастика, ужасы, комедия
Продолжительность: 00:43:00
Перевод: Любительский одноголосый закадровый (Владимир Воронцов)
Русские субтитры: нет
Субтитры: Отсутствуют
Режиссёр: Сэнфорд Букставер, Адам Дэвидсон, Кришна Рао
В ролях: Рена Софер, Чад Виллетт, Рено Уилсон, Джон Полито, Шарон Сакс, Кертис Армстронг, Хоси Симмонс, Джефф Диаз, Илэйн Хендрикс, Октавия Спенсер
Описание: Молодой репортер в поисках работы устраивается в один из желтых таблоидов Каково же его удивление когда он узнает что все бульварные статьи об пришельцах , снежном человеке , реинкарнации оказываются самой настоящей правдой
Список серий
01 Pilot
02 What Gobbles Beneath
03 Here There Be Dragons
04 Baby Got Back
05 He's Dead, She's Dead
06 Bermuda Love Triangle
07 Only the Young Die Good
08 Bring Me the Head of Tucker Burns
09 Let Sleeping Dogs Fry
10 Take Me Back
11 Touched by an Alien
12 Pig Boy's Big Adventure
13 The Cursed Sombrero
14 Tears of a Clone
15 I See Dead Fat People
16 Man and Superman
17 Hot from the Oven
18 The Stepford Cheerleaders
19 The Mists of Avalon Parkway
20 The King Is Undead
21 Hell Mall
22 A Snitch in Time
..... .
Качество: SATRip
Формат: AVI
Видео кодек: XviD
Аудио кодек: MP3
Видео: XviD, ~ 1070 Кбит/с, 512х384, 23.976, 4х3
Аудио 1: Русский (МР3, 2 ch, 224 Кбит/с),
Аудио 2: Английский (МР3, 2 ch, 128 Кбит/с)

Релиз

Найдено на синемаскопе
Перевод - Владимир Воронцов
Видеомонтаж 1-16 серия anvic, 17-22 Diablo

Дополнительная информация

В 2001 году сериал был номинантом на премию"Сатурн" как лучший сериал для кабельных сетей
Другие названия:
"Les chroniques du mystère" Switzerland (French title)
"News from the Edge" USA (alternative title)
"Salaiset arkistot" Finland
Страничка на кинопоиске

MI

Общее
Полное имя : F:\Hroniki.(01-22.seria.iz.22).2001-2002.XviD.SATRip\Hroniki.(01.seria.iz.22).2001.XviD.SATRip.avi
Формат : AVI
Формат/Информация : Audio Video Interleave
Размер файла : 416 Мбайт
Продолжительность : 40 м.
Режим общего битрейта : Переменный
Общий поток : 1439 Кбит/сек
Программа кодирования : VirtualDubModRus 1.5.10.2 (build 2542/release)
Библиотека кодирования : VirtualDubMod build 2542/release
Видео
Идентификатор : 0
Формат : MPEG-4 Visual
Профиль формата : Simple@L3
Параметр BVOP формата : 2
Параметр QPel формата : Нет
Параметр GMC формата : Без точки перехода
Параметр матрицы формата : Default (H.263)
Режим смешивания : Сжатый битовый поток
Идентификатор кодека : XVID
Идентификатор кодека/Подсказка : XviD
Продолжительность : 40 м.
Битрейт : 1073 Кбит/сек
Ширина : 512 пикселей
Высота : 384 пикселя
Соотношение сторон : 4:3
Частота кадров : 23,976 кадра/сек
Цветовое пространство : YUV
Субдискретизация насыщенности : 4:2:0
Битовая глубина : 8 бит
Тип развёртки : Прогрессивная
Метод сжатия : С потерями
Бит/(Пиксели*Кадры) : 0.228
Размер потока : 310 Мбайт (75%)
Библиотека кодирования : XviD 1.0.3 (UTC 2004-12-20)
Аудио #1
Идентификатор : 1
Формат : MPEG Audio
Версия формата : Version 1
Профиль формата : Layer 3
Идентификатор кодека : 55
Идентификатор кодека/Подсказка : MP3
Продолжительность : 40 м.
Вид битрейта : Постоянный
Битрейт : 224 Кбит/сек
Каналы : 2 канала
Частота : 44,1 КГц
Метод сжатия : С потерями
Размер потока : 64,8 Мбайт (16%)
Выравнивание : Разделение по промежуткам
Продолжительность промежутка : 42 мс. (1,00 видеокадр)
Время предзагрузки промежутка : 500 мс.
Аудио #2
Идентификатор : 2
Формат : MPEG Audio
Версия формата : Version 1
Профиль формата : Layer 3
Режим : Joint stereo
Расширение режима : MS Stereo
Идентификатор кодека : 55
Идентификатор кодека/Подсказка : MP3
Продолжительность : 40 м.
Вид битрейта : Переменный
Битрейт : 128 Кбит/сек
Каналы : 2 канала
Частота : 48,0 КГц
Метод сжатия : С потерями
Размер потока : 36,0 Мбайт (9%)
Выравнивание : Соединение по промежуткам
Продолжительность промежутка : 24 мс. (0,58 видеокадр)
Время предзагрузки промежутка : 505 мс.
Библиотека кодирования : LAME3.96r
Настройки программы : -m j -V 4 -q 3 -lowpass 17.5 --abr 128

Скриншоты


[Profile] [PM]
Display posts:    
Reply to topic

Current time is: 28-May 03:27

All times are UTC + 3



You cannot post new topics in this forum
You cannot reply to topics in this forum
You cannot edit your posts in this forum
You cannot delete your posts in this forum
You cannot vote in polls in this forum
You cannot attach files in this forum
You cannot download files in this forum