Враждебный пришелец / Космический отщепенец / Alienator (Фред Олен Рэй / Fred Olen Ray) [1990 г., фантастика, боевик, DVDRip] ПД (НТВ+), АО (с VHS), АО (В.Котов)

Reply to topic
 
Author Message

admin ®

Gender: Male

Longevity: 7 years 5 months

Posts: 4813

Post 21-Apr-2013 19:42

[Quote]

Враждебный пришелец / Космический отщепенец / Alienator
Год выпуска: 1990
Страна: США
Жанр: фантастика, боевик
Продолжительность: 01:28:50
Перевод 2: ПД (НТВ+)
Перевод 2: Авторский (одноголосый)(с VHS)
Перевод 3: Авторский (одноголосый)(В.Котов)
Режиссер: Фред Олен Рэй / Fred Olen Ray
В ролях: Ян-Майкл Винсент, Джон Филлип Ло, Росс Хэйген, Дайана Ортелли, Джесси Дэбсон, Доун Уайлдсмит, П.Дж. Соулз, Роберт Кларк, Ричард Уайли, Лео Гордон
Описание: Злодей Коль приговорен к смерти на находящейся на орбите Земли космической станции. Но невообразимым образом ему удается спастись, сесть в спасательный модуль и приземлиться в густых зарослях Южной Америки. Командир космической станции решает отправить по следу Кола девушку-робота, чтобы уничтожить злодея любой ценой. На Земле Коль знакомится с подростками, которые помогают ему скрыться от преследовательницы…
Релиз

Качество: DVDRip
Формат: MKV
Видео: x264, 2042 кбит/с, 720x552, 25 к/с, crf=18
Аудио 1: Русский ПД (НТВ+) (AC3, 2 ch, 192 Кбит/с)
Аудио 2: Русский АО (с VHS) (AC3, 2 ch, 192 Кбит/с)
Аудио 3: Русский АО В.Котов (AC3, 2 ch, 192 Кбит/с)
Аудио 4: Английский (AC3, 2 ch, 192 Кбит/с)


Пример озвучки от НТВ+

Релиз

Рип с ДВД5 с синемагеддона - sasha20072007
Синхр. и реставрация дорожки с VHS - sasha20072007
Оцифровка VHS-дорожки (личный архив)- alenavova. Спасибо ему огромное!
За дорожку В.Котова спасибо cinemascope, videodemons и punk and destroy
За дорожку НТВ+ благодарим Ledy_X
Работа над релизом - kosmoaelita
Русская дорожка с VHS немного очищена от шумов. Где возможно, звуковое сопровождение и эффекты вставлены от качественной англ. дорожки. Полутораминутная финальная сцена на ДВД почему-то вырезана.Поэтому пришлось вклеить ее от VHSRipa
Сравнение: kosmoaelita.com vs. rutracker
Сравнение: kosmoaelita.com vs. videodemons
Сравнение: с оригиналом ДВД5 CG
Для Украины: рип и оригинальный ДВД дополнительно залиты в файлохранилище
Для удаления и добавления дорожек в mkv используйте бесплатную mkvmerge GUI 6.00

Дополнительно

рейтинг MPAA лицам до 17 лет обязательно присутствие взрослого
слоган «The Ultimate Terminator»
Also Known As (AKA)
Alienator Greece (video title)
Alienator - A Exterminadora Indestrutível Brazil (imdb display title)
Alienator - Der Vollstrecker aus dem All West Germany
Alienators 2 Japan (video box title)
Börtönbolygó Hungary (imdb display title)

Рецензия

MediaInfo

Общее
Уникальный идентификатор : 185133027931016904632705077586522632370 (0x8B4752FFFFDF584DA958216437A570B2)
Полное имя : F:\Alienator 1990 kosmoaelita\Alienator 1990.x264.DVDRip.3xRus.Eng.kosmoaelita.mkv
Формат : Matroska
Версия формата : Version 4 / Version 2
Размер файла : 1,75 Гбайт
Продолжительность : 1 ч. 28 м.
Общий поток : 2815 Кбит/сек
Название фильма : Alienator / Враждебный пришелец / 1990г / rip by sasha20072007 (kosmoaelita) 2013-04-21)
Дата кодирования : UTC 2014-09-03 21:17:31
Программа кодирования : mkvmerge v6.6.0 ('The Edge Of The In Between') built on Dec 1 2013 17:55:00
Библиотека кодирования : libebml v1.3.0 + libmatroska v1.4.1
Видео
Идентификатор : 1
Формат : AVC
Формат/Информация : Advanced Video Codec
Профиль формата : High@L4.1
Параметр CABAC формата : Да
Параметр ReFrames формата : 10 кадров
Идентификатор кодека : V_MPEG4/ISO/AVC
Продолжительность : 1 ч. 28 м.
Битрейт : 2042 Кбит/сек
Ширина : 720 пикселей
Высота : 552 пикселя
Соотношение сторон : 4:3
Режим частоты кадров : Постоянный
Частота кадров : 25,000 кадров/сек
Цветовое пространство : YUV
Субдискретизация насыщенности : 4:2:0
Битовая глубина : 8 бит
Тип развёртки : Прогрессивная
Бит/(Пиксели*Кадры) : 0.206
Размер потока : 1,24 Гбайт (71%)
Заголовок : www.kosmoaelita.com
Библиотека кодирования : x264 core 130 r2273 b3065e6
Настройки программы : cabac=1 / ref=10 / deblock=1:0:0 / analyse=0x3:0x133 / me=umh / subme=11 / psy=1 / psy_rd=0.95:0.15 / mixed_ref=1 / me_range=24 / chroma_me=1 / trellis=2 / 8x8dct=1 / cqm=0 / deadzone=21,11 / fast_pskip=1 / chroma_qp_offset=-3 / threads=6 / lookahead_threads=1 / sliced_threads=0 / nr=0 / decimate=1 / interlaced=0 / bluray_compat=0 / constrained_intra=0 / bframes=10 / b_pyramid=2 / b_adapt=2 / b_bias=0 / direct=3 / weightb=1 / open_gop=0 / weightp=2 / keyint=220 / keyint_min=22 / scenecut=40 / intra_refresh=0 / rc_lookahead=60 / rc=2pass / mbtree=1 / bitrate=2042 / ratetol=1.0 / qcomp=0.60 / qpmin=0 / qpmax=69 / qpstep=4 / cplxblur=20.0 / qblur=0.5 / ip_ratio=1.25 / aq=1:0.90
Default : Да
Forced : Нет
Основные цвета : BT.601 PAL
Характеристики трансфера : BT.470 System B, BT.470 System G
Коэффициенты матрицы : BT.601
Аудио #1
Идентификатор : 2
Формат : AC-3
Формат/Информация : Audio Coding 3
Расширение режима : CM (complete main)
Параметр Endianness формата : Big
Идентификатор кодека : A_AC3
Продолжительность : 1 ч. 28 м.
Вид битрейта : Постоянный
Битрейт : 192 Кбит/сек
Каналы : 2 канала
Расположение каналов : Front: L R
Частота : 48,0 КГц
Битовая глубина : 16 бит
Метод сжатия : С потерями
Размер потока : 122 Мбайт (7%)
Заголовок : Русский ПД (НТВ+)
Язык : Russian
Default : Да
Forced : Нет
Аудио #2
Идентификатор : 3
Формат : AC-3
Формат/Информация : Audio Coding 3
Расширение режима : CM (complete main)
Параметр Endianness формата : Big
Идентификатор кодека : A_AC3
Продолжительность : 1 ч. 28 м.
Вид битрейта : Постоянный
Битрейт : 192 Кбит/сек
Каналы : 2 канала
Расположение каналов : Front: L R
Частота : 48,0 КГц
Битовая глубина : 16 бит
Метод сжатия : С потерями
Размер потока : 122 Мбайт (7%)
Заголовок : Русский АО ()
Язык : Russian
Default : Нет
Forced : Нет
Аудио #3
Идентификатор : 4
Формат : AC-3
Формат/Информация : Audio Coding 3
Расширение режима : CM (complete main)
Параметр Endianness формата : Big
Идентификатор кодека : A_AC3
Продолжительность : 1 ч. 28 м.
Вид битрейта : Постоянный
Битрейт : 192 Кбит/сек
Каналы : 2 канала
Расположение каналов : Front: L R
Частота : 48,0 КГц
Битовая глубина : 16 бит
Метод сжатия : С потерями
Размер потока : 122 Мбайт (7%)
Заголовок : Русский АО (В. Котов)
Язык : Russian
Default : Нет
Forced : Нет
Аудио #4
Идентификатор : 5
Формат : AC-3
Формат/Информация : Audio Coding 3
Расширение режима : CM (complete main)
Параметр Endianness формата : Big
Идентификатор кодека : A_AC3
Продолжительность : 1 ч. 28 м.
Вид битрейта : Постоянный
Битрейт : 192 Кбит/сек
Каналы : 2 канала
Расположение каналов : Front: L R
Частота : 48,0 КГц
Битовая глубина : 16 бит
Метод сжатия : С потерями
Размер потока : 122 Мбайт (7%)
Язык : English
Default : Нет
Forced : Нет

Скриншоты

cd Рип дополнительно залит на mail.ru cd2
[Profile] [PM]
Display posts:    
Reply to topic

Current time is: 27-Feb 11:09

All times are UTC + 3



You cannot post new topics in this forum
You cannot reply to topics in this forum
You cannot edit your posts in this forum
You cannot delete your posts in this forum
You cannot vote in polls in this forum
You cannot attach files in this forum
You cannot download files in this forum