Смерть в холодную ночь / A Cold Night's Death (TV) (Джерролд Фридман / Jerrold Freedman) [1973 г., Sci Fi] АО (Вячеслав Котов), СТ (VampirO ©)

Reply to topic
 
Author Message

Zykkor ®

Gender: Unknown

Post 10-Apr-2013 11:35

[Quote]

Смерть в холодную ночь / A Cold Night's Death
Релиз cinemascope.ru
Год выпуска: 1973
Страна: США, ABC Circle Films, Spelling-Goldberg Productions
Жанр: Sci Fi
Продолжительность: 1 ч. 10 м.
Режиссер: Джерролд Фридман / Jerrold Freedman
В ролях: Роберт Калп,Эли Уоллах,Майкл С. Гвин
Описание: Прерывается связь с высокогорной научной станцией, где профессор Фогель проводил опыты над животными. Поскольку последнее переданное им сообщение было совершенно невменяемым, начальство, опасаясь, что Фогель сошёл с ума от одиночества и изоляции, отправляет на станцию двух других учёных — Джонса и Энари. Прибывшие находят оборудование и подопытных обезьян в плачевном состоянии, а самого профессора замёрзшим насмерть в радиорубке. Оба остаются, чтобы продолжить работу Фогеля, однако вскоре Джонсу начинает казаться, что кроме них на станции есть кто-то ещё.
Доп. информация: Перевод авторский одноголосый Вячеслав Котов
Формат: MKV
Видео кодек: XviD
Аудио кодек: MPEG Audio
Видео: 640x480,29,970 fps,XviD 1.2.1
Аудио 1: Русский В.Котов MP3,128 Кбит/сек,2 канала,48,0 КГц
Аудио 2: Английский MP3,128 Кбит/сек,2 канала,48,0 КГц
Субтитры: Русские (VampirO ©)


Релиз

Релиз cinemascope.ru

Дополнительно

Also Known As (AKA)
Der eiskalte Tod West Germany
Kylmä kuolema Finland
Terreur dans la montagne France
The Chill Factor (undefined)
Una fría noche de muerte Spain (imdb display title)

Рецензия

MediaInfo

Общее
Уникальный идентификатор : 198304714319428360713079945829028398180 (0x953019472971E8F4825C59B1DF070464)
Полное имя : F:\Смерть в холодную ночь Cold Nights Death 1973.XviD.DVDRip.mkv
Формат : Matroska
Версия формата : Version 4 / Version 2
Размер файла : 992 Мбайт
Продолжительность : 1 ч. 10 м.
Общий поток : 1962 Кбит/сек
Название фильма : A Cold Night's Death / Смерть в холодную ночь / 1973
Дата кодирования : UTC 2013-04-19 07:50:44
Программа кодирования : mkvmerge v6.1.0 ('Old Devil') built on Apr 13 2013 19:41:27
Библиотека кодирования : libebml v1.3.0 + libmatroska v1.4.0
Видео
Идентификатор : 1
Формат : MPEG-4 Visual
Профиль формата : Advanced Simple@L5
Параметр BVOP формата : Да
Параметр QPel формата : Нет
Параметр GMC формата : Без точки перехода
Параметр матрицы формата : Default (H.263)
Идентификатор кодека : V_MS/VFW/FOURCC / XVID
Идентификатор кодека/Подсказка : XviD
Продолжительность : 1 ч. 10 м.
Битрейт : 1666 Кбит/сек
Ширина : 640 пикселей
Высота : 480 пикселей
Соотношение сторон : 4:3
Режим частоты кадров : Постоянный
Частота кадров : 29,970 кадров/сек
Цветовое пространство : YUV
Субдискретизация насыщенности : 4:2:0
Битовая глубина : 8 бит
Тип развёртки : Прогрессивная
Метод сжатия : С потерями
Бит/(Пиксели*Кадры) : 0.181
Размер потока : 843 Мбайт (85%)
Библиотека кодирования : XviD 1.2.1 (UTC 2008-12-04)
Default : Да
Forced : Нет
Аудио #1
Идентификатор : 2
Формат : MPEG Audio
Версия формата : Version 1
Профиль формата : Layer 3
Режим : Joint stereo
Расширение режима : MS Stereo
Идентификатор кодека : A_MPEG/L3
Идентификатор кодека/Подсказка : MP3
Продолжительность : 1 ч. 10 м.
Вид битрейта : Постоянный
Битрейт : 128 Кбит/сек
Каналы : 2 канала
Частота : 48,0 КГц
Метод сжатия : С потерями
Размер потока : 64,8 Мбайт (7%)
Язык : Russian
Default : Да
Forced : Нет
Аудио #2
Идентификатор : 3
Формат : MPEG Audio
Версия формата : Version 1
Профиль формата : Layer 3
Режим : Joint stereo
Расширение режима : MS Stereo
Идентификатор кодека : A_MPEG/L3
Идентификатор кодека/Подсказка : MP3
Продолжительность : 1 ч. 10 м.
Вид битрейта : Постоянный
Битрейт : 128 Кбит/сек
Каналы : 2 канала
Частота : 48,0 КГц
Метод сжатия : С потерями
Размер потока : 64,8 Мбайт (7%)
Язык : English
Default : Нет
Forced : Нет
Текст #1
Идентификатор : 4
Формат : VobSub
Идентификатор кодека : S_VOBSUB
Идентификатор кодека/Информация : The same subtitle format used on DVDs
Заголовок : Русский (VampirO ©) VobSub
Язык : Russian
Default : Да
Forced : Нет
Текст #2
Идентификатор : 5
Формат : UTF-8
Идентификатор кодека : S_TEXT/UTF8
Идентификатор кодека/Информация : UTF-8 Plain Text
Заголовок : Русский (VampirO ©) srt (12,2012г)
Язык : Russian
Default : Нет
Forced : Нет

Скриншоты


Скачать фильм с сервера Яндекса: http://yadi.sk/d/Uq-ZyKuY4Ic-U
 

bot

Post 12-Apr-2013 13:27 (after 2 days 1 hour)

Топик был перенесен из форума Релизы из прошлого в форум 1970-1979 г. Расцвет научной фантастики и появление Звездных войн

admin2
 

Guest ®

Gender: Unknown

Post 19-Apr-2013 10:58 (after 8 days)

[Quote]

Добавлены субтитры от VampirO ©
 
Display posts:    
Reply to topic

Current time is: 31-Mar 02:30

All times are UTC + 3



You cannot post new topics in this forum
You cannot reply to topics in this forum
You cannot edit your posts in this forum
You cannot delete your posts in this forum
You cannot vote in polls in this forum
You cannot attach files in this forum
You cannot download files in this forum