Секретный бункер / Опустошающий / Ravager (Джеймс Д. Дек / James D. Deck) [1997 г., Фантастика DVDRip] ПМ

Reply to topic
 
Author Message

Guest ®

Gender: Unknown

Post 07-Apr-2013 23:56

[Quote]

Секретный бункер / Опустошающий / Ravager
Год выпуска: 1997
Страна: США, 360 Entertainment
Жанр: Фантастика
Продолжительность: 01:28:37
Перевод: Профессиональный (многоголосый, закадровый)
Режиссер: Джеймс Д. Дек / James D. Deck
В ролях: Брюс Пэйн, Янси Батлер, Джульетт Ландау, Стенли Кэмел, Робин Сакс, Сальватор Ксереб, Стюарт Корнфелд, Момо Ясима, Дайан Першинг
Описание: Когда капитан космического крейсера Купер и старший офицер Эйвдон соглашались пилотировать рейс в восточное полушарие, они и не подозревали, что этот полет окажется роковым. Их корабль совершает аварийную посадку на таинственном острове, которого нет ни на одной карте. Обследуя остров, команда и пассажиры попадают в секретное хранилище химического оружия. Неожиданно происходит землетрясение, канистры с ядовитым веществом, известным как «Опустошающий», взрываются и скорость, с какой «Опустошающий» воздействует на людей, просто устрашает. Температура крови достигает точки кипения, что вызывает потерю ориентации и крайнюю агрессивность. Команда и пассажиры превращаются в зомби, одержимых жаждой убийства. Незараженными остаются лишь Эйвдон и Купер и их единственный шанс на спасение — челнок крейсера.
Качество: DVDRip
Формат: AVI
Видео: 704x512 (1.38:1), 25 fps, XviD MPEG-4 ~1819 kbps avg, 0.20 bit/pixel
Аудио: 48 kHz, AC3 Dolby Digital, 3/2 (L,C,R,l,r) + LFE ch, ~384 kbps


Немецкий трейлер

Дополнительно

слоган «Seal is broken, Terror is unleashed....»
Also Known As (AKA)
O afanistis Greece (video title)
Ravager - Die Virusfalle Germany
Ravageur Canada (complete title) (French title)

Рецензия

MediaInfo

Общее
Полное имя : F:\Sekretnyj.bunker.1997.Xvid.DVDRip.avi
Формат : AVI
Формат/Информация : Audio Video Interleave
Размер файла : 1,37 Гбайт
Продолжительность : 1 ч. 28 м.
Общий поток : 2214 Кбит/сек
Программа кодирования : VirtualDubMod 1.5.10.2 (build 2540/release)
Библиотека кодирования : VirtualDubMod build 2540/release
Видео
Идентификатор : 0
Формат : MPEG-4 Visual
Профиль формата : Advanced Simple@L5
Параметр BVOP формата : 1
Параметр QPel формата : Нет
Параметр GMC формата : Без точки перехода
Параметр матрицы формата : Default (MPEG)
Режим смешивания : Сжатый битовый поток
Идентификатор кодека : XVID
Идентификатор кодека/Подсказка : XviD
Продолжительность : 1 ч. 28 м.
Битрейт : 1820 Кбит/сек
Ширина : 704 пикселя
Высота : 512 пикселей
Соотношение сторон : 1,375
Частота кадров : 25,000 кадров/сек
Цветовое пространство : YUV
Субдискретизация насыщенности : 4:2:0
Битовая глубина : 8 бит
Тип развёртки : Прогрессивная
Метод сжатия : С потерями
Бит/(Пиксели*Кадры) : 0.202
Размер потока : 1,13 Гбайт (82%)
Библиотека кодирования : XviD 1.2.1 (UTC 2008-12-04)
Аудио
Идентификатор : 1
Формат : AC-3
Формат/Информация : Audio Coding 3
Расширение режима : CM (complete main)
Параметр Endianness формата : Big
Идентификатор кодека : 2000
Продолжительность : 1 ч. 28 м.
Вид битрейта : Постоянный
Битрейт : 384 Кбит/сек
Каналы : 6 каналов
Расположение каналов : Front: L C R, Side: L R, LFE
Частота : 48,0 КГц
Битовая глубина : 16 бит
Метод сжатия : С потерями
Размер потока : 243 Мбайт (17%)
Выравнивание : Разделение по промежуткам
Продолжительность промежутка : 40 мс. (1,00 видеокадр)
Время предзагрузки промежутка : 500 мс.

Скриншоты

 
Display posts:    
Reply to topic

Current time is: 06-Dec 01:35

All times are UTC + 3



You cannot post new topics in this forum
You cannot reply to topics in this forum
You cannot edit your posts in this forum
You cannot delete your posts in this forum
You cannot vote in polls in this forum
You cannot attach files in this forum
You cannot download files in this forum