Смерть на Луне Сатурна / Death on Saturn's Moon (Джон Кролзик / John Krawlzik) [2000 г., Фантастика, триллер, SATRip] ПД

Reply to topic
 
Author Message

Guest ®

Gender: Unknown

Post 07-Apr-2013 23:16

[Quote]

Смерть на Луне Сатурна / Death on Saturn's Moon
Год выпуска: 2000
Страна: США
Жанр: Фантастика, триллер
Продолжительность: 01:19:30
Перевод: Профессиональный (двухголосый)
Режиссер: Джон Кролзик / John Krawlzik
В ролях: Курт Карибалис / Curt Karibalis, Сэлли Мерсер / Sally Mercer, Пол Л. Нолан / Paul L. Nolan
Описание: 2057 год. Неуклюжий космический корабль медленно снижается сквозь оранжевый туман атмосферы одного из спутников Сатурна, Титана. Хэйес, бывший военный, а ныне исследователь, прибыл на горно-исследовательскую базу – мрачное полуразрушенное сооружение, наполовину утонувшее в поверхностном слое спутника. Хэйес послан на базу правительством Земли, на которой царит жесткий милитаристский режим, ведущий бесконечную войну за экономическое и политическое превосходство. На базе погиб руководитель проекта Барнетт, и Хэйесу поручено расследовать его гибель. Хэйес встречает в лабиринте двоих оставшихся обитателей – меланхоличного ученого Липперта и колкого, не слишком компетентного главного инженера Стернера. Все попытки Хэйеса расспросить о гибели Барнетта встречают их упорное сопротивление. Они утверждают, что Барнетт случайно вышел на прогулку за пределы базы в ядовитую атмосферу спутника без скафандра и защиты – но почему?
Качество: SATRip
Формат: AVI
Видео: 704x528 (1.33:1), 25 fps, XviD MPEG-4 ~1029 kbps avg, 0.11 bit/pixel
Аудио: 48 kHz, AC3 Dolby Digital, 2/0 (L,R) ch, ~192.00 kbps avg


Трейлер

Дополнительно

Also Known As (AKA)
Ascension USA (video title)
Pagomeni atmosfaira Greece (video title)

Рецензия

Очень почти. Детская по наивности, по свежести вИдения, по непосредственности, если угодно, -- по наглости, попытка сделать подражание "Солярису". Без понимания того, что так нельзя. Выстраивание сцен и интерьеры минут 20 аккуратно крадутся у Тарковского (забыв, что здесь прилетел воин, а не рефлексирующий интеллигент), идея же ("среди Космоса нас ждет неизвестное") едва ли тянет и на "Солярис" Лема; о Тарковском уж здесь не будем. Этого противоречия (великая стилистика для малой идеи), как и других, авторы фильма в упор и по-детски не видят... что фильм в итоге и спасает от смертного приговора. Мало того, свежесть авторского восприятия, умение передать радость своих маленьких творческих открытий, а ещё -- атмосферность, неспешность, необязательность произносимых слов, оттенки синего и рыжего, туманы и пылевые потоки, -- всё это открывает зрителю отличную возможность повспоминать, помечтать, помедитировать, поразбирать похожие и просто другие сюжеты… (Это Роллан сказал, что плохая музыка ХОРОША тем, что под неё приятно думается о своём?) Ergo, -- замечательный фильм для тихого удовольствия. Я получил его бездну.
Кому-то лучше "Терминатор". Кто-то не примет меньше "Соляриса" Тарковского. К сведению последних – новых идей здесь не ищите: банальное "среди Космоса нас ждет неизвестное" -- и то еле выдавливается из этого фильма. Нет здесь вины, греха и ответственности Человека. Нет Соляриса по Тарковскому... Любителей «Терминатора» и «Рэмбо» тем более просят не беспокоиться.

MediaInfo

General
Complete name : E:\Kino\Smert'_na_Lune_Saturna_[torrents.ru].avi
Format : AVI
Format/Info : Audio Video Interleave
File size : 700 MiB
Duration : 1h 19mn
Overall bit rate : 1 232 Kbps
Writing application : VirtualDubModRus 1.5.10.2 (build 2542/release)
Writing library : VirtualDubMod build 2542/release
Video
ID : 0
Format : MPEG-4 Visual
Format profile : Advanced Simple@L5
Format settings, BVOP : 2
Format settings, QPel : No
Format settings, GMC : No warppoints
Format settings, Matrix : Default (H.263)
Muxing mode : Packed bitstream
Codec ID : XVID
Codec ID/Hint : XviD
Duration : 1h 19mn
Bit rate : 1 030 Kbps
Width : 704 pixels
Height : 528 pixels
Display aspect ratio : 5:4
Original display aspect ratio : 4:3
Frame rate : 25.000 fps
Color space : YUV
Chroma subsampling : 4:2:0
Bit depth : 8 bits
Scan type : Progressive
Compression mode : Lossy
Bits/(Pixel*Frame) : 0.111
Stream size : 586 MiB (84%)
Writing library : XviD 1.2.1 (UTC 2008-12-04)
Audio
ID : 1
Format : AC-3
Format/Info : Audio Coding 3
Mode extension : CM (complete main)
Format settings, Endianness : Big
Codec ID : 2000
Duration : 1h 19mn
Bit rate mode : Constant
Bit rate : 192 Kbps
Channel(s) : 2 channels
Channel positions : Front: L R
Sampling rate : 48.0 KHz
Bit depth : 16 bits
Compression mode : Lossy
Stream size : 109 MiB (16%)
Alignment : Aligned on interleaves
Interleave, duration : 40 ms (1.00 video frame)
Interleave, preload duration : 512 ms

Скриншоты

Скринлист

cd Рип дополнительно залит на ОБЛАКО cd2
 
Display posts:    
Reply to topic

Current time is: 31-May 00:05

All times are UTC + 3



You cannot post new topics in this forum
You cannot reply to topics in this forum
You cannot edit your posts in this forum
You cannot delete your posts in this forum
You cannot vote in polls in this forum
You cannot attach files in this forum
You cannot download files in this forum