Остров сокровищ в космосе / L'isola del tesoro (Der Schatz im All) (Treasure Island in Outer Space) / Сезон: 1 / Серии: 1-7(7) (Антонио Маргерити / Antonio Margheriti ) [1987, Фантастика, приключения, DVDRip] VO Андрей Дольский Original

Reply to topic
 
Author Message

admin ®

Gender: Male

Longevity: 7 years 7 months

Posts: 4811

Post 05-Sep-2012 20:38

[Quote]

Остров сокровищ в космосе / L'isola del tesoro (Der Schatz im All) (Treasure Island in Outer Space)
Год выпуска: 1987
Страна: Италия, Германия (ФРГ), Bavaria Film, Radiotelevisione Italiana (RAI), TF1 Films Production
Жанр: Фантастика, приключения
Продолжительность: 7 x ~ 00:50:00
Перевод: Любительский одноголосый закадровый (Андрей Дольский)
Русские субтитры: нет
Режиссёр: Антонио Маргерити / Antonio Margheriti
В ролях: Энтони Куинн, Дэвид Уорбек, Итако Нардулли, Филипп Леруа, Джованни Ломбардо Радице, Ида Ди Бенедетто, Франческо Касале, Ренато Де Кармине, Клаус Лёвич, Энцо Черузико
Описание: Версия "Острова сокровищ" в переводе на космос. Мальчик Джим Хоукинс вместе с матерью останавливается в отеле на некой планете, которая принимает космических путешественников. Однажды жизнь Джима меняется с появлением старого космоморяка Билли Бонса. Тот в состоянии алкогольного опьянения рассказывает, что он был на пиратском космическом корабле, который спрятал награбленные сокровища на отдаленной планете. Только у него есть карта планеты, на которой указано, где находятся сокровища...
СЭМПЛ
Качество: DVDRip
Формат: MKV
Видео кодек: H.264
Аудио кодек: AC3, MP3
Видео: x264, ~ 1360 Кбит/с, 720х540, 25 к/с, crf=19-22
Аудио 1: Русский (А.Дольский, налож. на нем. дорожку) (МР3, 2 ch, 128 Кбит/с)
Аудио 2: Русский (А.Дольский, налож. на англ. дорожку) (МР3, 2 ch, 128 Кбит/с)
Аудио 3: Английский (МР3, 2 ch, 128 Кбит/с)
Аудио 4: Немецкий (AC3, 2 ch, 128 Кбит/с)

Релиз

Рип с немецких ДВД5, монтаж - мои (sasha200720), качество рипа - crf=19-22
Озвучка - Андрей Дольский
Звуковые дорожки:
1 Русский (А.Дольский, налож. на нем. дорожку)
2 Русский (А.Дольский, налож. на англ. дорожку)
3 Английский
4 Немецкий
Сравнение с исходником DVD5

Дополнительная информация

Другие названия:
"Der Schatz im All" East Germany (series title) / West Germany
"Space Island" Norway (video title) (cut version) / UK (video title)
"Kincsessziget az űrben" Hungary
"La isla del tesoro" Venezuela
"La isla del tesoro en el espacio exterior" Spain
"Treasure Island in Outer Space" Europe (English title)

Рецензия

Мальчик Джим Хоукинс вместе с матерью останавливается в отеле на некой планете, которая принимает космических путешественников. Однажды жизнь Джима меняется с появлением старого моряка Билли Бонса. Тот в состоянии алкогольного опьянения рассказывает, что он был на пиратском космическом корабле, который спрятал награбленные сокровища на отдаленной планете. Только у него есть карта планеты, на которой указано, где находятся сокровища. Вскоре после этого появляется слепой старый человек Пью и дает Билли «черную метку», которая вызывает у того сердечный приступ. Джиму удается найти в его комнате карту и ускользнуть из отеля. Он встречается с доктором Ливзи и Скуайером Трилейни. У них имеется достаточно денег, чтобы финансировать экспедицию на планету, где находятся сокровища. Искатели приключений нанимают капитана Смолетта и Джона Сильвера в качестве повара. Дальше все разворачивается в соответствии с классическим произведением Роберта Льюиса Стивенсона, включая встречу с Беном Ганном…
Спецэффекты сделал Эмилио Руис, который работал над картинами «Ужас» (1963), «Дом» (1976), «Путешествие к центру Земли» (1976), «Сверхзвуковой человек» (1979), «Остров монстров» (1981), «Морские дьяволы» (1981), «Новые инопланетяне» (1983), «Глаз кота» (1985), «Слизни» (1988), «Остров дьявола» (1994). Композитор Джанфранко Пленизио написал музыку к фильмам «Двенадцать стульев» (1969), «Аванти!» (1972), «Синьор Робинзон» (1976), «Рыба-убийца» (1978), «Джанго наносит ответный удар» (1987). Чтобы не было скучно, я добавил фотографии из одноименного фильма 1990 года с участием Чарльтона Хестона, Оливера Рида и совсем молодого Кристиана Бейла. horror-movies.ru

MI

Общее
Уникальный идентификатор : 200471697015985172180263866511547158138 (0x96D171C6114B95C1984331054FB3CE7A)
Полное имя : E:\Ostrov.sokrovishch.v.kosmose.(1-7.serii.iz.7).1987.x264.DVDRip.sasha200720\Ostrov.sokrovishch.v.kosmose.(1.serija.iz.7).1987.x264.DVDRip.sasha200720.mkv
Формат : Matroska
Версия формата : Version 2
Размер файла : 669 Мбайт
Продолжительность : 50 м.
Общий поток : 1851 Кбит/сек
Название фильма : Treasure Island in Outer Space / e1x7 / 1987 / rip by sasha20072007
Дата кодирования : UTC 2012-04-29 02:58:46

Программа кодирования : mkvmerge v5.5.0 ('Healer') built on Apr 24 2012 23:47:03
Библиотека кодирования : libebml v1.2.3 + libmatroska v1.3.0
Attachment : Yes / Yes
Видео
Идентификатор : 1
Формат : AVC
Формат/Информация : Advanced Video Codec
Профиль формата : High@L4.1
Параметр CABAC формата : Да
Параметр ReFrames формата : 10 кадров
Идентификатор кодека : V_MPEG4/ISO/AVC
Продолжительность : 50 м.
Битрейт : 1238 Кбит/сек
Ширина : 720 пикселей
Высота : 540 пикселей
Соотношение сторон : 1,422
Частота кадров : 25,000 кадров/сек
Цветовое пространство : YUV
Субдискретизация насыщенности : 4:2:0
Битовая глубина : 8 бит
Тип развёртки : Прогрессивная
Бит/(Пиксели*Кадры) : 0.127
Размер потока : 447 Мбайт (67%)
Библиотека кодирования : x264 core 120 r2164 da19765
Настройки программы : cabac=1 / ref=10 / deblock=1:-2:-2 / analyse=0x3:0x133 / me=umh / subme=11 / psy=1 / psy_rd=1.00:0.17 / mixed_ref=1 / me_range=24 / chroma_me=1 / trellis=2 / 8x8dct=1 / cqm=0 / deadzone=21,11 / fast_pskip=1 / chroma_qp_offset=-3 / threads=12 / sliced_threads=0 / nr=0 / decimate=1 / interlaced=0 / bluray_compat=0 / constrained_intra=0 / bframes=10 / b_pyramid=2 / b_adapt=2 / b_bias=0 / direct=3 / weightb=1 / open_gop=0 / weightp=2 / keyint=220 / keyint_min=22 / scenecut=40 / intra_refresh=0 / rc_lookahead=60 / rc=crf / mbtree=1 / crf=20.5 / qcomp=0.60 / qpmin=0 / qpmax=69 / qpstep=4 / vbv_maxrate=17500 / vbv_bufsize=14000 / crf_max=0.0 / nal_hrd=none / ip_ratio=1.25 / aq=1:0.90
Default : Да
Forced : Нет
Аудио #1
Идентификатор : 2
Формат : MPEG Audio
Версия формата : Version 1
Профиль формата : Layer 3
Режим : Joint stereo
Расширение режима : MS Stereo
Идентификатор кодека : A_MPEG/L3
Идентификатор кодека/Подсказка : MP3
Продолжительность : 50 м.
Вид битрейта : Постоянный
Битрейт : 128 Кбит/сек
Каналы : 2 канала
Частота : 48,0 КГц
Метод сжатия : С потерями
Размер потока : 46,2 Мбайт (7%)
Заголовок : Русский (Андрей Дольский) & ger
Язык : Russian
Default : Да
Forced : Да
Аудио #2
Идентификатор : 3
Формат : MPEG Audio
Версия формата : Version 1
Профиль формата : Layer 3
Режим : Joint stereo
Расширение режима : MS Stereo
Идентификатор кодека : A_MPEG/L3
Идентификатор кодека/Подсказка : MP3
Продолжительность : 50 м.
Вид битрейта : Постоянный
Битрейт : 128 Кбит/сек
Каналы : 2 канала
Частота : 48,0 КГц
Метод сжатия : С потерями
Размер потока : 46,2 Мбайт (7%)
Заголовок : Русский (Андрей Дольский) & eng
Язык : Russian
Default : Нет
Forced : Нет
Аудио #3
Идентификатор : 4
Формат : MPEG Audio
Версия формата : Version 1
Профиль формата : Layer 3
Режим : Joint stereo
Расширение режима : MS Stereo
Идентификатор кодека : A_MPEG/L3
Идентификатор кодека/Подсказка : MP3
Продолжительность : 50 м.
Вид битрейта : Постоянный
Битрейт : 128 Кбит/сек
Каналы : 2 канала
Частота : 48,0 КГц
Метод сжатия : С потерями
Размер потока : 46,2 Мбайт (7%)
Библиотека кодирования : LAME3.90.3
Язык : English
Default : Нет
Forced : Нет
Аудио #4
Идентификатор : 5
Формат : AC-3
Формат/Информация : Audio Coding 3
Расширение режима : CM (complete main)
Параметр Endianness формата : Big
Идентификатор кодека : A_AC3
Продолжительность : 50 м.
Вид битрейта : Постоянный
Битрейт : 192 Кбит/сек
Каналы : 2 канала
Расположение каналов : Front: L R
Частота : 48,0 КГц
Битовая глубина : 16 бит
Метод сжатия : С потерями
Размер потока : 69,4 Мбайт (10%)
Язык : German
Default : Нет
Forced : Нет
Меню
00:00:00.000 : en:01
00:05:00.233 : en:02
00:10:00.466 : en:03
00:15:10.933 : en:04
00:20:00.833 : en:05
00:25:00.333 : en:06
00:30:00.599 : en:07
00:35:00.266 : en:08
00:40:00.599 : en:09
00:45:00.000 : en:10
00:50:00.233 : en:11
00:55:00.466 : en:12
01:00:10.933 : en:13
01:10:00.833 : en:14
01:15:00.333 : en:15
01:20:00.599 : en:16
01:25:00.266 : en:17

Скриншоты


cd Сериал дополнительно залит на mail.ru cd2
[Profile] [PM]

Guest

Gender: Unknown

Post 06-Jul-2015 23:11 (after 2 years 10 months)

[Quote]

А можно еще как-то DVD диски раздобыть.
Или подсказать, где можно скачать.
 

admin ®

Gender: Male

Longevity: 7 years 7 months

Posts: 4811

Post 06-Jul-2015 23:43 (after 31 minute)

[Quote]

http://www.movie-blog.org/2014/12/31/der-schatz-im-...d-by-rfr-crew-2/
[Profile] [PM]
Quick Reply

Name:

            
Heads necessary to send messages to enable JavaScript
Display posts:    
Reply to topic

Current time is: 06-Apr 01:31

All times are UTC + 3



You cannot post new topics in this forum
You can reply to topics in this forum
You cannot edit your posts in this forum
You cannot delete your posts in this forum
You cannot vote in polls in this forum
You cannot attach files in this forum
You cannot download files in this forum