Конечная программа / Финальная программа / The Final Programme / The Last Days of Man on Earth (Роберт Фуэст / Robert Fuest) [1973, Великобритания, Фантастика, триллер, DVDRip-AVC] VO Sub Fre + Original Eng

Reply to topic
 
Author Message

admin ®

Gender: Male

Longevity: 7 years 2 months

Posts: 4723

Post 05-Sep-2012 20:23

[Quote]

Конечная программа / Финальная программа / The Final Programme / The Last Days of Man on Earth
Страна: Великобритания, Anglo-EMI Film Distributors Ltd
Жанр: Фантастика, триллер
Год выпуска: 1973
Продолжительность: 01:25:41
Перевод: Одноголосый закадровый (Вадим Назаров)
Cубтитры: французские
Оригинальная аудиодорожка: английский
Режиссер: Роберт Фуэст / Robert Fuest
В ролях: Джон Финч, Дженни Ранэйкр, Стерлинг Хейден, Гарри Эндрюс, Хью Гриффит, Джули Эдж, Патрик Мэги, Грэм Кроуден, Джордж Кулурис, Бейзил Хенсон
Описание: После смерти своего отца, лауреат Нобелевской премии Джерри Корнелиус, пускается в отчаянные поиски микрофильма, который содержит «последнюю программу», оставленную отцом. Она направлена на создание совершенного человеческого организма. В доме Джерри проживает безумный брат-наркоман Фрэнк, у которого находится микрофильм. Когда Джерри пытается взять пленку, его любимая сестра погибает в результате странного несчастного случая… Джерри обращается за помощью к таинственной мисс Бруннер, очаровательной бисексуалки,которая имеет дурную привычку убивать своих любовников после ночи любви. После многочисленных приключений Джерри отправляется в Лапландию, где мисс Бруннер и трое странных ученых планирую запустить «последнюю программу», чтобы получилась новая Мессия…
Качество видео: DVDRip-AVC
Формат видео: MKV
Видео: х264, 1471 Кбит/с, 720х572@1024x572, 25к/с, crf=21
Аудио 1: Русский (AC3, 2 кн, 192 Кбит/с)
Аудио 2: Английский (AC3, 2 кн, 192 Кбит/с
Аудио 3: Французский (AC3, 2 кн, 192 Кбит/с
Субтитры: Французские (VobSub)
..... ......

Релиз

Рип с ДВД5, монтаж - мои (sasha20072007), качество рипа - crf=21
Озвучка - Вадим Назаров

Рецензия

После смерти своего отца, лауреат Нобелевской премии Джерри Корнелиус, пускается в отчаянные поиски микрофильма, который содержит «последнюю программу», оставленную отцом. Она направлена на создание совершенного человеческого организма. В доме Джерри проживает безумный брат-наркоман Фрэнк, у которого находится микрофильм. Когда Джерри пытается взять пленку, его любимая сестра погибает в результате странного несчастного случая. Джерри обращается за помощью к таинственной мисс Бруннер, очаровательной бисексуалки, которая имеет дурную привычку убивать своих любовников после ночи любви. После многочисленных приключений Джерри отправляется в Лапландию, где мисс Бруннер и трое странных ученых планирую запустить «последнюю программу», чтобы получилась новая Мессия…
Сложный фантастический фильм, поставленный по произведению известного фантаста Майкла Муркока. Слишком вычурный, неестественный, а в конце даже немного скучный. Некая смесь из «Механического апельсина» (1971) Стэнли Кубрика и «Пищи» Луининга. Но что отличает картину от вышеуказанных произведений, так это диалоги, наполненные странным черным юмором. Сам Муркок ненавидит этот фильм и считает его извращением. Мик Джаггер мог сыграть в нем Джерри Корнелиуса, но впоследствии отказался, так как посчитал сценарий слишком странным и сложным. Актер Стерлинг Хайден имеет в картине всего одну сцену. Джон Финч незадолго до начала съемок заменил Тимоти Далтона. В США картина была выпущена в прокат фирмой Роджера Кормана «New World Pictures» под названием «Последние дни человека на Земле». На международном кинофестивале в Аворьязе картина получила специальный приз жюри (вместе с фильмом «The bed sitting room», 1969). Оценка 3 балла.

Дополнительно

Страничка на Кинопоиске
Слоган:«The Future is Cancelled!»
Другие названия
Alpha omega: il principio della fine Italy
Les décimales du futur France (imdb display title)
O Programa Final Brazil
Satanikos engefalos Greece (transliterated ISO-LATIN-1 title)
Supersankari Finland
The Last Days of Man on Earth USA
Verrückt und gefährlich West Germany
Фильм отмечен Специальным призом жюри Международного фестиваля фантастических фильмов в Авориазе в 1976 году

MediaInfo

Общее
Уникальный идентификатор : 197627409036426505852355709463415370619 (0x94ADA78C9F9308AE9AAE1D295E8E337B)
Полное имя : E:\Konechnaja.programma.1973.x264.DVDRip.(AVC).sasha20072007.mkv
Формат : Matroska
Версия формата : Version 2
Размер файла : 1,25 Гбайт
Продолжительность : 1 ч. 25 м.
Общий поток : 2089 Кбит/сек
Название фильма : The final programme / 1973 / Конечная программа / rip by sasha20072007
Дата кодирования : UTC 2012-04-28 10:54:23
Программа кодирования : mkvmerge v5.5.0 ('Healer') built on Apr 24 2012 23:47:03
Библиотека кодирования : libebml v1.2.3 + libmatroska v1.3.0
Attachment : Yes / Yes / Yes
Видео
Идентификатор : 1
Формат : AVC
Формат/Информация : Advanced Video Codec
Профиль формата : High@L4.1
Параметр CABAC формата : Да
Параметр ReFrames формата : 10 кадров
Идентификатор кодека : V_MPEG4/ISO/AVC
Продолжительность : 1 ч. 25 м.
Битрейт : 1471 Кбит/сек
Ширина : 720 пикселей
Высота : 572 пикселя
Соотношение сторон : 16:9
Частота кадров : 25,000 кадров/сек
Цветовое пространство : YUV
Субдискретизация насыщенности : 4:2:0
Битовая глубина : 8 бит
Тип развёртки : Прогрессивная
Бит/(Пиксели*Кадры) : 0.143
Размер потока : 902 Мбайт (70%)
Библиотека кодирования : x264 core 120 r2164 da19765
Настройки программы : cabac=1 / ref=10 / deblock=1:-2:-2 / analyse=0x3:0x133 / me=umh / subme=11 / psy=1 / psy_rd=1.00:0.18 / mixed_ref=1 / me_range=24 / chroma_me=1 / trellis=2 / 8x8dct=1 / cqm=0 / deadzone=21,11 / fast_pskip=1 / chroma_qp_offset=-3 / threads=12 / sliced_threads=0 / nr=0 / decimate=1 / interlaced=0 / bluray_compat=0 / constrained_intra=0 / bframes=10 / b_pyramid=2 / b_adapt=2 / b_bias=0 / direct=1 / weightb=1 / open_gop=0 / weightp=2 / keyint=220 / keyint_min=22 / scenecut=40 / intra_refresh=0 / rc_lookahead=60 / rc=crf / mbtree=1 / crf=21.0 / qcomp=0.60 / qpmin=0 / qpmax=69 / qpstep=4 / vbv_maxrate=17500 / vbv_bufsize=14000 / crf_max=0.0 / nal_hrd=none / ip_ratio=1.25 / aq=1:0.90
Default : Да
Forced : Нет
Аудио #1
Идентификатор : 2
Формат : AC-3
Формат/Информация : Audio Coding 3
Расширение режима : CM (complete main)
Параметр Endianness формата : Big
Идентификатор кодека : A_AC3
Продолжительность : 1 ч. 25 м.
Вид битрейта : Постоянный
Битрейт : 192 Кбит/сек
Каналы : 2 канала
Расположение каналов : Front: L R
Частота : 48,0 КГц
Битовая глубина : 16 бит
Метод сжатия : С потерями
Размер потока : 118 Мбайт (9%)
Заголовок : Русский (Вадим Назаров)
Язык : Russian
Default : Да
Forced : Да
Аудио #2
Идентификатор : 3
Формат : AC-3
Формат/Информация : Audio Coding 3
Расширение режима : CM (complete main)
Параметр Endianness формата : Big
Идентификатор кодека : A_AC3
Продолжительность : 1 ч. 25 м.
Вид битрейта : Постоянный
Битрейт : 192 Кбит/сек
Каналы : 2 канала
Расположение каналов : Front: L R
Частота : 48,0 КГц
Битовая глубина : 16 бит
Метод сжатия : С потерями
Размер потока : 118 Мбайт (9%)
Язык : English
Default : Нет
Forced : Нет
Аудио #3
Идентификатор : 4
Формат : AC-3
Формат/Информация : Audio Coding 3
Расширение режима : CM (complete main)
Параметр Endianness формата : Big
Идентификатор кодека : A_AC3
Продолжительность : 1 ч. 25 м.
Вид битрейта : Постоянный
Битрейт : 192 Кбит/сек
Каналы : 2 канала
Расположение каналов : Front: L R
Частота : 48,0 КГц
Битовая глубина : 16 бит
Метод сжатия : С потерями
Размер потока : 118 Мбайт (9%)
Язык : French
Default : Нет
Forced : Нет
Текст
Идентификатор : 5
Формат : VobSub
Идентификатор кодека : S_VOBSUB
Идентификатор кодека/Информация : The same subtitle format used on DVDs
Язык : French
Default : Нет
Forced : Нет
Меню
00:00:00.000 : :Chapter 01
00:06:56.440 : :Chapter 02
00:14:51.440 : :Chapter 03
00:21:22.080 : :Chapter 04
00:28:13.320 : :Chapter 05
00:35:21.720 : :Chapter 06
00:41:21.320 : :Chapter 07
00:49:57.520 : :Chapter 08
00:57:18.800 : :Chapter 09
01:03:28.200 : :Chapter 10
01:10:36.120 : :Chapter 11
01:16:53.800 : :Chapter 12

Скриншоты

[Profile] [PM]
Quick Reply

Name:

            
Heads necessary to send messages to enable JavaScript
Display posts:    
Reply to topic

Current time is: 17-Nov 19:00

All times are UTC + 3



You cannot post new topics in this forum
You can reply to topics in this forum
You cannot edit your posts in this forum
You cannot delete your posts in this forum
You cannot vote in polls in this forum
You cannot attach files in this forum
You cannot download files in this forum