Пересадка в Айдахо / Переход из Айдахо / Idaho Transfer (Питер Фонда / Peter Fonda) [1973, США, Фантастика, драма, приключения, DVDRip] VO Вячеслав Котов

Reply to topic
 
Author Message

admin ®

Gender: Male

Longevity: 7 years 2 months

Posts: 4723

Post 05-Sep-2012 20:13

[Quote]

Пересадка в Айдахо / Переход из Айдахо / Idaho Transfer
Страна: США
Жанр: Фантастика, драма, приключения
Год выпуска: 1973
Продолжительность: 01:25:16
Перевод: Авторский одноголосый закадровый (Вячеслав Котов)
Cубтитры: нет
Режиссер: Питер Фонда / Peter Fonda
В ролях: Келли Боханон, Кевин Херст, Кэролайн Хилдебранд, Кит Кэрредин, Дэйл Хопкинс, Тед Д’Арм, Джо Ньюман, Сьюзэн Келли, Мередит Халл
Описание: Молодые исследователи с помощью машины времени умеют путешествовать в будущее и назад. С помощью этого прибора они узнают, что людям (может всем, а может и нет) в будущем грозит гибель, по какой причине - не уточняется. А их проект начальство как раз хочет закрыть, поэтому несколько человек, набив рюкзаки всякими полезными вещами, отправляются в будущее, чтобы продолжить историю человечества после его гибели. Однако оказалось, что путешествие в машине времени стерилизует людей, так что надежд у них никаких нет. Героиня убегает из лагеря, некоторое время меланхолично бродит по пустынным пейзажам, затем возвращается и понимает, что почти все мертвы. Она отправляется куда-то в прошлое, но лаборатория охраняется военными, от которых она почему-то сбегает в далекое будущее, и вот тут-то можно увидеть самое интересное...
Качество видео: DVDRip
Формат видео: MKV
Видео: x264, 1621 Кбит/с, 704х528, 23,976 к/с
Аудио 1: Русский АО (Котов) (AC3, 2 кн, 192 Кбит/с)
Аудио 2: Английский (AC3, 2 кн, 192 Кбит/с)

Релиз

Рип с ДВД5 (трансфер с VHS) с Синемагеддона, монтаж, подгонка русской дорожки - (kosmoaelita), качество рипа - crf=23
Озвучка - Вячеслав Котов
Лог кодирования - в контейнере
Сравнение с исходником DVD5

Дополнительно

Страничка на Кинопоиске
Другие названия:
Aporrito programma Idaho Greece (transliterated ISO-LATIN-1 title)
Deranged UK (video title)
Expedition in die Zukunft West Germany
Idaho Transfer France
Idaho-siirto Finland
Nuclear Escape Australia (video title)
Viaje al futuro Spain (imdb display title)
Слоган: «Can the future be saved by the ideals of the past?»

Рецензия

Некие молодые исследователи с помощью машины времени умеют путешествовать в будущее и назад. Поскольку герои скачут туда-обратно, и никаких комментариев насчет того, где же они оказались, не делается, понять сюжет во всей его изобретательной полноте - дело нелегкое, требующее более чем одного просмотра. Но общую линию я все же уяснил. С помощью этого прибора они узнают, что людям (может всем, а может и нет) в будущем грозит гибель, по какой причине - не уточняется. А их проект начальство как раз хочет прикрыть, поэтому несколько человек, набив рюкзаки всякими полезными вещами, бегом отправляются в будущее, чтобы продолжить историю человечества после его гибели. Однако оказалось, что путешествие в машине времени стерилизует людей, так что надежд у них никаких нет. Героиня убегает из лагеря, некоторое время меланхолично бродит по пустынным пейзажам, затем возвращается и понимает, что почти все мертвы. Она отправляется куда-то в прошлое, но лаборатория охраняется военными, от которых она почему-то (вроде они ей не угрожали) сбегает в далекое будущее, и вот тут-то можно увидеть самое интересное.
Питер Фонда снял всего три фильма, два хвалимых многими вестерна с собой в главной роли и вот эту маловразумительную фантастику без себя. Фильм, откровенно говоря, смехотворен почти целиком, в основном из-за нехилой слабины по части логики. Ну, например, чтобы переместиться во времени, необходимо снять штаны, обувь и куртку (ну и очки, если есть), все остальное можно оставить на себе (хотя героиня часто путешествовала топлесс (тем не менее, обнаженки почти нет)), при этом любые предметы можно сложить в специальный контейнер, и тогда они тоже переместятся. Мне это не очень ясно. А как вам такое: в медицинском кабинете на одной стене весит анатомическая схема человека, а на противоположной - постер "Франкенштейна"?? Да и вообще, бОльшая часть фильма - один сплошной провисон, но вот последние минут 15 просто замечательные и они стоят того, чтобы претерпеть все предшествующее.

MediaInfo

Общее
Уникальный идентификатор : 207046902991917122560702600782312815030 (0x9BC3C875141D4DC8B833590BF0AAB9B6)
Полное имя : F:\Peresadka.v.Ajdaho.1973.x264.VHSRip.sasha2072007.mkv
Формат : Matroska
Версия формата : Version 2
Размер файла : 1,22 Гбайт
Продолжительность : 1 ч. 25 м.
Общий поток : 2045 Кбит/сек
Название фильма : Пересадка в Айдахо (Переход из Айдахо) / Idaho Transfer / 1973 / rip by sasha20072007
Дата кодирования : UTC 2012-05-07 11:14:56
Программа кодирования : mkvmerge v5.5.0 ('Healer') built on Apr 24 2012 23:47:03
Библиотека кодирования : libebml v1.2.3 + libmatroska v1.3.0
Attachment : Yes / Yes
Видео
Идентификатор : 1
Формат : AVC
Формат/Информация : Advanced Video Codec
Профиль формата : High@L4.1
Параметр CABAC формата : Да
Параметр ReFrames формата : 10 кадров
Идентификатор кодека : V_MPEG4/ISO/AVC
Продолжительность : 1 ч. 25 м.
Битрейт : 1621 Кбит/сек
Ширина : 704 пикселя
Высота : 536 пикселей
Соотношение сторон : 4:3
Частота кадров : 23,976 кадра/сек
Цветовое пространство : YUV
Субдискретизация насыщенности : 4:2:0
Битовая глубина : 8 бит
Тип развёртки : Прогрессивная
Бит/(Пиксели*Кадры) : 0.179
Размер потока : 988 Мбайт (79%)
Библиотека кодирования : x264 core 120 r2164 da19765
Настройки программы : cabac=1 / ref=10 / deblock=1:-2:-2 / analyse=0x3:0x133 / me=umh / subme=11 / psy=1 / psy_rd=1.00:0.25 / mixed_ref=1 / me_range=24 / chroma_me=1 / trellis=2 / 8x8dct=1 / cqm=0 / deadzone=6,6 / fast_pskip=1 / chroma_qp_offset=-4 / threads=12 / sliced_threads=0 / nr=0 / decimate=0 / interlaced=0 / bluray_compat=0 / constrained_intra=0 / bframes=10 / b_pyramid=2 / b_adapt=2 / b_bias=0 / direct=3 / weightb=1 / open_gop=0 / weightp=2 / keyint=220 / keyint_min=22 / scenecut=40 / intra_refresh=0 / rc_lookahead=60 / rc=crf / mbtree=1 / crf=23.0 / qcomp=0.80 / qpmin=0 / qpmax=69 / qpstep=4 / vbv_maxrate=17500 / vbv_bufsize=14000 / crf_max=0.0 / nal_hrd=none / ip_ratio=1.10 / aq=1:0.50
Язык : English
Default : Да
Forced : Нет
Аудио #1
Идентификатор : 2
Формат : AC-3
Формат/Информация : Audio Coding 3
Расширение режима : CM (complete main)
Параметр Endianness формата : Big
Идентификатор кодека : A_AC3
Продолжительность : 1 ч. 25 м.
Вид битрейта : Постоянный
Битрейт : 192 Кбит/сек
Каналы : 2 канала
Расположение каналов : Front: L R
Частота : 48,0 КГц
Битовая глубина : 16 бит
Метод сжатия : С потерями
Размер потока : 117 Мбайт (9%)
Заголовок : Русский (Вячеслав Котов)
Язык : Russian
Default : Да
Forced : Да
Аудио #2
Идентификатор : 3
Формат : AC-3
Формат/Информация : Audio Coding 3
Расширение режима : CM (complete main)
Параметр Endianness формата : Big
Идентификатор кодека : A_AC3
Продолжительность : 1 ч. 25 м.
Вид битрейта : Постоянный
Битрейт : 192 Кбит/сек
Каналы : 2 канала
Расположение каналов : Front: L R
Частота : 48,0 КГц
Битовая глубина : 16 бит
Метод сжатия : С потерями
Размер потока : 117 Мбайт (9%)
Язык : English
Default : Нет
Forced : Нет
Меню
00:00:02.002 : en:00:00:02.002
00:08:27.507 : en:00:08:27.507
00:14:25.865 : en:00:14:25.865
00:22:35.354 : en:00:22:35.354
00:28:30.709 : en:00:28:30.709
00:36:44.202 : en:00:36:44.202
00:42:57.374 : en:00:42:57.374
00:42:59.377 : en:00:42:59.377
00:49:38.776 : en:00:49:38.776
00:55:58.155 : en:00:55:58.155
01:02:04.521 : en:01:02:04.521
01:13:28.204 : en:01:13:28.204
01:24:05.841 : en:01:24:05.841

Скриншоты


Скринлист

Файл дополнительно залит на ОБЛАКО
[Profile] [PM]
Quick Reply

Name:

            
Heads necessary to send messages to enable JavaScript
Display posts:    
Reply to topic

Current time is: 17-Nov 18:47

All times are UTC + 3



You cannot post new topics in this forum
You can reply to topics in this forum
You cannot edit your posts in this forum
You cannot delete your posts in this forum
You cannot vote in polls in this forum
You cannot attach files in this forum
You cannot download files in this forum