Ясновидение / Второе зрение / Second Sight (Джоэл Звик / Joel Zwick) [1989, США, Фантастика, комедия, детектив, DVDRip-AVC] AVO Горчаков Original Eng

Reply to topic
DL-List and Torrent activity
Size:  1.45 GB   |    Registered:  7 years 2 months   |    Completed:  3 times

Seeder not seen: 4 years 8 months

 
   
 
 
 
Author Message

admin ®

Gender: Male

Longevity: 7 years 2 months

Posts: 4723

Post 05-Sep-2012 19:04

[Quote]

Ясновидение / Второе зрение / Second Sight
Страна: США, Lorimar Film Entertainment
Жанр: Фантастика, комедия, детектив
Год выпуска: 1989
Продолжительность: 01:24:20
Перевод: Авторский (одноголосый закадровый) Горчаков
Cубтитры: нет
Оригинальная аудиодорожка: английский
Режиссер: Джоэл Звик / Joel Zwick
В ролях: Стюарт Панкин, Майкл Ломбард, Christine Estabrook, Джон Шук, Джон Ларрокетт, Бесс Армстронг, Бронсон Пинчот, Джеймс Толкэн, Уильям Принц, Марисоль Мэсси
Описание: Детективно-мистическая комедия. Джон Ларрокьетт - глава детективного агенства, которое наняли для поиска пропавшей персоны, вероятно похищенной. Они используют мистические и парапсихические способности как помощь в поисках исчезнувшей девушки
Бывший полицейский становится владельцем частного сыскного агентства. Его друг - экстрасенс, обладающий особыми способностями, помогает ему в раскрытии преступлений. Но по стечению обстоятельств их деятельность не приносит им желаемого дохода. Неожиданно в агентство обращаются служители церкви с просьбой отыскать похищенного кардинала. Взявшись за это дело, друзья рассчитывают на высокое вознаграждение

Качество видео: DVDRip-AVC
Формат видео: MKV
Видео: x264, 2050 кб/с, 720x480@853x480, 23.976 к/с, crf=19
Аудио 1: Русский (AC3, 2кн, 224 Кбит/с)
Аудио 2: Английский (AC3, 2 кн, 192 Кбит/с)

Релиз

Озвучка: Горчаков
Релиз русской дорожки - tominet
Работа со звуком - videoman ?
Рип с ДВД5 с синемагеддона и монтаж - мои (sasha20072007)
Лог кодирования и постеры - в контейнере
Сравнение с оригиналом DVD5

Дополнительно

Другие названия:
Átlátnok Hungary
A.A.A. Detective chiaroveggente offresi Italy
Agencja 'Trzecie Oko' Poland
Détectives en folie Belgium (French title)
Henkimaailman hommia Finland
Mein Partner mit dem zweiten Blick West Germany
O batsos kai to medium Greece (TV title)
Olho Vivo Portugal
Um Detetive do Outro Mundo Brazil
Un detective con mucha vista Spain
Слоган «He's in the detective biz with a psychic wiz!»
Для удаления и добавления дорожек в MKV используйте бесплатную mkvmerge GUI 5.70

MediaInfo

Общее
Уникальный идентификатор : 232547687537429751905705819962567876114 (0xAEF30E34C3E938D68F38CA903D20DE12)
Полное имя : F:\Classic Sc-Fi Ultimate Collection\Second Sight - 1989\Jasnovidenie.1989.x264.DVDRip.(AVC).sasha20072007.mkv
Формат : Matroska
Версия формата : Version 2
Размер файла : 1,45 Гбайт
Продолжительность : 1 ч. 24 м.
Общий поток : 2467 Кбит/сек
Название фильма : Second Sight / 1989 / rip by sasha20072007 (2012-08-03)
Дата кодирования : UTC 2012-08-03 10:34:23
Программа кодирования : mkvmerge v5.7.0 ('The Whirlwind') built on Jul 30 2012 20:20:16
Библиотека кодирования : libebml v1.2.3 + libmatroska v1.3.0
Attachment : Yes / Yes
Видео
Идентификатор : 1
Формат : AVC
Формат/Информация : Advanced Video Codec
Профиль формата : High@L4.1
Параметр CABAC формата : Да
Параметр ReFrames формата : 8 кадров
Идентификатор кодека : V_MPEG4/ISO/AVC
Продолжительность : 1 ч. 24 м.
Битрейт : 2050 Кбит/сек
Ширина : 720 пикселей
Высота : 480 пикселей
Соотношение сторон : 16:9
Соотношение сторон в оригинале : 16:9
Частота кадров : 23,976 кадра/сек
Стандарт вещания : NTSC
Цветовое пространство : YUV
Субдискретизация насыщенности : 4:2:0
Битовая глубина : 8 бит
Тип развёртки : Прогрессивная
Бит/(Пиксели*Кадры) : 0.247
Размер потока : 1,18 Гбайт (81%)
Библиотека кодирования : x264 core 125 r2200 999b753
Настройки программы : cabac=1 / ref=8 / deblock=1:-2:-2 / analyse=0x3:0x133 / me=umh / subme=10 / psy=1 / psy_rd=1.00:0.20 / mixed_ref=1 / me_range=24 / chroma_me=1 / trellis=2 / 8x8dct=1 / cqm=0 / deadzone=21,11 / fast_pskip=1 / chroma_qp_offset=-3 / threads=6 / lookahead_threads=1 / sliced_threads=0 / nr=0 / decimate=1 / interlaced=0 / bluray_compat=0 / constrained_intra=0 / bframes=8 / b_pyramid=2 / b_adapt=2 / b_bias=0 / direct=3 / weightb=1 / open_gop=0 / weightp=2 / keyint=220 / keyint_min=22 / scenecut=40 / intra_refresh=0 / rc_lookahead=60 / rc=2pass / mbtree=1 / bitrate=2050 / ratetol=1.0 / qcomp=0.60 / qpmin=0 / qpmax=69 / qpstep=4 / cplxblur=20.0 / qblur=0.5 / vbv_maxrate=17500 / vbv_bufsize=14000 / nal_hrd=none / ip_ratio=1.30 / aq=1:0.80
Default : Да
Forced : Нет
Основные цвета : BT.601-6 525, BT.1358 525, BT.1700 NTSC, SMPTE 170M
Характеристики трансфера : BT.601-6 525, BT.601-6 625, BT.1358 525, BT.1358 625, BT.1700 NTSC, SMPTE 170M
Коэффициенты матрицы : BT.601-6 525, BT.1358 525, BT.1700 NTSC, SMPTE 170M
Аудио #1
Идентификатор : 2
Формат : AC-3
Формат/Информация : Audio Coding 3
Расширение режима : CM (complete main)
Параметр Endianness формата : Big
Идентификатор кодека : A_AC3
Продолжительность : 1 ч. 24 м.
Вид битрейта : Постоянный
Битрейт : 224 Кбит/сек
Каналы : 2 канала
Расположение каналов : Front: L R
Частота : 48,0 КГц
Битовая глубина : 16 бит
Метод сжатия : С потерями
Размер потока : 135 Мбайт (9%)
Заголовок : Русский (Горчаков)
Язык : Russian
Default : Да
Forced : Нет
Аудио #2
Идентификатор : 3
Формат : AC-3
Формат/Информация : Audio Coding 3
Расширение режима : CM (complete main)
Параметр Endianness формата : Big
Идентификатор кодека : A_AC3
Продолжительность : 1 ч. 24 м.
Вид битрейта : Постоянный
Битрейт : 192 Кбит/сек
Каналы : 2 канала
Расположение каналов : Front: L R
Частота : 48,0 КГц
Битовая глубина : 16 бит
Метод сжатия : С потерями
Размер потока : 116 Мбайт (8%)
Язык : English
Default : Нет
Forced : Нет
Меню
00:00:00.000 : :Chapter 01
00:10:00.500 : :Chapter 02
00:20:00.000 : :Chapter 03
00:30:00.000 : :Chapter 04
00:40:00.500 : :Chapter 05
00:50:00.000 : :Chapter 06
01:00:00.500 : :Chapter 07
01:10:00.000 : :Chapter 08
01:20:00.000 : :Chapter 09

Скриншоты


Jasnovidenie.1989.x264.DVDRip.(AVC).sasha20072007.mkv.torrent
 GOLD TORRENT! DOWNLOAD TRAFFIC DOES NOT CONSIDER! 
Torrent: Registered [ 2012-09-05 19:04 ]

Download .torrent

Download

15 KB

Status: checked
Completed: 3 times
Size: 1.45 GB
 
[Profile] [PM]
Display posts:    
Reply to topic

Current time is: 17-Nov 20:53

All times are UTC + 3



You cannot post new topics in this forum
You cannot reply to topics in this forum
You cannot edit your posts in this forum
You cannot delete your posts in this forum
You cannot vote in polls in this forum
You cannot attach files in this forum
You can download files in this forum