Гог / GOG (Херберт Л. Строк / Herbert L. Strock) [1954, США, Фантастика, триллер, DVDRip-AVC] MVO НТВ+ MGM Sub Ita + Original Eng

Reply to topic
 
Author Message

admin ®

Gender: Male

Longevity: 7 years

Posts: 4725

Location: Україна

Post 05-Sep-2012 19:00

[Quote]

Гог / GOG
Страна: США, Ivan Tors Productions
Жанр: Фантастика, триллер
Год выпуска: 1954
Продолжительность: 01:19:06
Перевод: Профессиональный (многоголосый закадровый) (НТВ+ для MGM)
Cубтитры: итальянские
Оригинальная аудиодорожка: английский
Режиссер: Херберт Л. Строк / Herbert L. Strock
В ролях: Ричард Иган, Констанс Даулин,г Херберт Маршалл, Джон Венграф, Филип Ван Зандт, Валери Вернон, Стивен Робертс, Байрон Кэйн, Дэвид Элперт, Майкл Фокс
Описание: В секретной подземной лаборатории якобы от несчастного случая умирают профессор и его ассистентка. Начальству это не кажется случайным и для расследования в лабораторию вызывается агент службы безопасности научных исследований Дэвид Шепард . В лаборатории он и его помощница знакомятся с последними разработками учёных в военной и аэрокосмической области, например с суперкомпьютером, управляющим всей базой и двумя роботами, имеющих собственные имена – Гог и Магог. Однако с момента прибытия Шепарда в научном комплексе начинают происходить странные вещи.
Качество видео: DVDRip-AVC
Формат видео: MKV
Видео: x264, 2070 кб/с, 720x540, 23.976 к/с, crf=20
Аудио 1: Русский (AC3, 2 кн, 192 Кбит/с)
Аудио 2: Английский (AC3, 2 кн, 192 Кбит/с)
Аудио 3: Итальянский (AC3, 2 кн, 192 Кбит/с)
Субтитры: Итальянские, VobSub

Релиз

Рип с итальянского ДВД5, синх. звука и монтаж - мои (sasha20072007)
Релиз - Slavnus Spacedust+Timur
Лог кодирования и постеры - в контейнере
Озвучка: НТВ+для MGM
Сравнение с оригиналом DVD5
Сравнение с рипом на кинозале
Сравнение с TVRip на рутрекере

Дополнительно

Другие названия:
Gog, el monstruo de cinco manos Chile / Spain (imdb display title)
Attacco alla base spaziale US Italy
Gog - Space Station U.S.A. Germany (alternative spelling)
Gog - Space Station USA Germany (Pay-TV title)
Gog - robotmysteriet Sweden
Gog, o Monstro de Cinco Mãos Brazil
Lentävä vaara Finland
Space Station USA USA (original script title)
Слоган «MECHANICAL FRANKENSTEIN»
Фильм любопытен хотя бы тем, что в нём был задействован этот интересный и очень редкий вертолёт McCulloch MC-4

Для удаления и добавления дорожек в mkv используйте бесплатную mkvmerge GUI 5.70

Рецензия

Период 50-х – 70-х годов для американской фантастики был временем расцвета жанра, в то время как жанр ужасов в кинематографе тогда возрождался после Второй мировой войны. Картина «Гог» является типичным представителем научно-фантастического фильма 50-х.
В секретной подземной лаборатории якобы от несчастного случая умирают профессор и его ассистентка. Начальству это не кажется случайным и для расследования в лабораторию вызывается агент службы безопасности научных исследований Дэвид Шепард . В лаборатории он и его помощница знакомятся с последними разработками учёных в военной и аэрокосмической области, например с суперкомпьютером, управляющим всей базой и двумя роботами, имеющих собственные имена – Гог и Магог. Однако с момента прибытия Шепарда в научном комплексе начинают происходить странные вещи. Оборудование выходит из под контроля, радиоактивный изотоп непонятно почему оказывается в обычной химической лаборатории и всё это приводит к гибели сотрудников. Вскоре учёные понимают, что все дело в Новаке – суперкомпьютере, управляющим всем комплексом и это именно он отдавал сигналы оборудованию убивать людей. Теперь Шепаду, его коллеге и учёным противостоят всё механизмы в лаборатории, управляемые через компьютер, в том числе роботы Гог и Магог…
Честно говоря, мне не понятно, почему фильм называется по имени одного из роботов – им в фильме отвелось очень мало экранного времени. К тому же их героям без особых проблем удалось уничтожить, так что о серьёзном сопротивлении речь тоже не идёт.
Особого внимание заслуживает оформление роботов. Это вам не киборги-убийцы из американских боевиков 90-х, а медлительные машинки ростом около метра без каких-либо признаков человекоподобия во внешнем виде. Сейчас такое будет смотреться лишь со смехом.
Что касается сюжета, то он не отличается особой оригинальностью и является типичной американской фантастической поделкой того времени. Поскольку действие происходит в секретной чудо-лаборатории, зрителю доводится послушать немало научных речей, половина из которых – полная чушь, сказанная лишь для придания оттенка наукообразности. Впрочем, для фантастики это простительно и, пожалуй, даже необходимо. Тем не менее сюжет интересен, в нём есть детективная составляющая, которая получилась очень даже неплохо. Убийства довольно оригинальны (особенно первое – в начале фильма) и их для фантастического фильма немало.
Обобщая сказанное, могу посоветовать фильм любителям старой американской фантастики и фильмов о машинах, противостоящих человеку (будь то суперкомпьютеры или роботы). Настоятельно не рекомендуется всем, кому по душе современные компьютерные эффекты в брутальных боевиках о роботах-убийцах (аля "Терминатор"), ибо такие люди заплюют экран при просмотре.
Оценка: 7 из 10

MediaInfo

Общее
Уникальный идентификатор : 194801414605031731691335887205967201751 (0x928D634437F275A08448B086291205D7)
Полное имя : F:\Gog.1954.x264.DVDRip.sasha20072007.mkv
Формат : Matroska
Версия формата : Version 2
Размер файла : 1,47 Гбайт
Продолжительность : 1 ч. 19 м.
Общий поток : 2659 Кбит/сек
Название фильма : Gog / Гог / 1954 / rip by sasha20072007 (2012-08-03)
Дата кодирования : UTC 2012-08-03 17:43:05
Программа кодирования : mkvmerge v5.7.0 ('The Whirlwind') built on Jul 30 2012 20:20:16
Библиотека кодирования : libebml v1.2.3 + libmatroska v1.3.0
Attachment : Yes / Yes / Yes / Yes / Yes
Видео
Идентификатор : 1
Формат : AVC
Формат/Информация : Advanced Video Codec
Профиль формата : High@L4.1
Параметр CABAC формата : Да
Параметр ReFrames формата : 8 кадров
Идентификатор кодека : V_MPEG4/ISO/AVC
Продолжительность : 1 ч. 19 м.
Битрейт : 2070 Кбит/сек
Ширина : 720 пикселей
Высота : 540 пикселей
Соотношение сторон : 4:3
Частота кадров : 25,000 кадров/сек
Цветовое пространство : YUV
Субдискретизация насыщенности : 4:2:0
Битовая глубина : 8 бит
Тип развёртки : Прогрессивная
Бит/(Пиксели*Кадры) : 0.213
Размер потока : 1,12 Гбайт (76%)
Библиотека кодирования : x264 core 125 r2200 999b753
Настройки программы : cabac=1 / ref=8 / deblock=1:-2:-2 / analyse=0x3:0x133 / me=umh / subme=10 / psy=1 / psy_rd=1.00:0.20 / mixed_ref=1 / me_range=24 / chroma_me=1 / trellis=2 / 8x8dct=1 / cqm=0 / deadzone=21,11 / fast_pskip=1 / chroma_qp_offset=-3 / threads=6 / lookahead_threads=1 / sliced_threads=0 / nr=0 / decimate=1 / interlaced=0 / bluray_compat=0 / constrained_intra=0 / bframes=8 / b_pyramid=2 / b_adapt=2 / b_bias=0 / direct=3 / weightb=1 / open_gop=0 / weightp=2 / keyint=220 / keyint_min=22 / scenecut=40 / intra_refresh=0 / rc_lookahead=60 / rc=2pass / mbtree=1 / bitrate=2070 / ratetol=1.0 / qcomp=0.60 / qpmin=0 / qpmax=69 / qpstep=4 / cplxblur=20.0 / qblur=0.5 / vbv_maxrate=17500 / vbv_bufsize=14000 / nal_hrd=none / ip_ratio=1.30 / aq=1:0.80
Default : Да
Forced : Нет
Основные цвета : BT.470-6 System B, BT.470-6 System G, BT.601-6 625, BT.1358 625, BT.1700 625 PAL, BT.1700 625 SECAM
Характеристики трансфера : BT.470-6 System B, BT.470-6 System G
Коэффициенты матрицы : BT.470-6 System B, BT.470-6 System G, BT.601-6 625, BT.1358 625, BT.1700 625 PAL, BT.1700 625 SECAM, IEC 61966-2-4 601
Аудио #1
Идентификатор : 2
Формат : AC-3
Формат/Информация : Audio Coding 3
Расширение режима : CM (complete main)
Параметр Endianness формата : Big
Идентификатор кодека : A_AC3
Продолжительность : 1 ч. 19 м.
Вид битрейта : Постоянный
Битрейт : 192 Кбит/сек
Каналы : 2 канала
Расположение каналов : Front: L R
Частота : 48,0 КГц
Битовая глубина : 16 бит
Метод сжатия : С потерями
Размер потока : 109 Мбайт (7%)
Заголовок : Русский (НТВ+, MGM)
Язык : Russian
Default : Да
Forced : Нет
Аудио #2
Идентификатор : 3
Формат : AC-3
Формат/Информация : Audio Coding 3
Профиль формата : Dolby Digital
Расширение режима : CM (complete main)
Параметр Endianness формата : Big
Идентификатор кодека : A_AC3
Продолжительность : 1 ч. 19 м.
Вид битрейта : Постоянный
Битрейт : 192 Кбит/сек
Каналы : 2 канала
Расположение каналов : Front: L R
Частота : 48,0 КГц
Битовая глубина : 16 бит
Метод сжатия : С потерями
Размер потока : 109 Мбайт (7%)
Язык : English
Default : Нет
Forced : Нет
Аудио #3
Идентификатор : 4
Формат : AC-3
Формат/Информация : Audio Coding 3
Профиль формата : Dolby Digital
Расширение режима : CM (complete main)
Параметр Endianness формата : Big
Идентификатор кодека : A_AC3
Продолжительность : 1 ч. 19 м.
Вид битрейта : Постоянный
Битрейт : 192 Кбит/сек
Каналы : 2 канала
Расположение каналов : Front: L R
Частота : 48,0 КГц
Битовая глубина : 16 бит
Метод сжатия : С потерями
Размер потока : 109 Мбайт (7%)
Язык : Italian
Default : Нет
Forced : Нет
Текст
Идентификатор : 5
Формат : VobSub
Идентификатор кодека : S_VOBSUB
Идентификатор кодека/Информация : The same subtitle format used on DVDs
Язык : Italian
Default : Нет
Forced : Нет
Меню
00:00:00.000 : :Chapter 01
00:00:08.280 : :Chapter 02
00:00:14.280 : :Chapter 03
00:00:20.880 : :Chapter 04
00:00:26.880 : :Chapter 05
00:00:32.880 : :Chapter 06
00:00:38.880 : :Chapter 07
00:00:45.480 : :Chapter 08
00:00:51.280 : :Chapter 09
00:00:57.880 : :Chapter 10
00:01:04.480 : :Chapter 11

Скриншоты



cd Рип дополнительно залит на mail.ru cd2
[Profile] [PM]
Quick Reply

Name:

            
Heads necessary to send messages to enable JavaScript
Display posts:    
Reply to topic

Current time is: 18-Sep 08:04

All times are UTC + 3



You cannot post new topics in this forum
You can reply to topics in this forum
You cannot edit your posts in this forum
You cannot delete your posts in this forum
You cannot vote in polls in this forum
You cannot attach files in this forum
You cannot download files in this forum