Земля 2 (ТВ) / Earth II (Том Гриз) [1971 г., Фантастика, DVDRemux] ЛО (sasha20072007) + Sub Rus (Vargnatt, saszab)

Reply to topic
 
Author Message

Darth_47 ®

Gender: Male

Longevity: 1 year 2 months

Posts: 685

Post 07-Mar-2013 15:02

[Quote]

Земля 2 (ТВ) / Earth II
Год выпуска: 1971
Страна: США
Жанр: Фантастика
Продолжительность: 01:37:40
Перевод: Любительский (одноголосый) (sasha20072007)
Режиссер: Том Гриз / Tom Gries
В ролях: Гэри Локвуд, Скотт Хайлендс, Хари Родс, Энтони Франчоза, Мэриетт Хартли
Описание: В ближайшем будущем для научных исследований и мира во всем мире была построена космическая станция Земля 2 - получившая статус первого независимого государства на орбите Земли.Но мир может быть разрушен, так как китайцы запускают ядерную боеголовку, которая летит всего в нескольких километрах от станции.
Качество: DVDRemux
Формат: DVD Video
Видео кодек: MPEG2
Аудио кодек: AC3
Видео: 6050 Kbps, 720x480, 24 Fps
Аудио 1: 192 Kbps, 2 ch, 48 KHz, русский
Аудио 2: 192 Kbps, 2 ch, 48 KHz, английский
Субтитры: Русские(Vargnatt, saszab)


Дополнительно

слоган «Just 10 seconds . . . to save a dream from becoming a nuclear nightmare»
Also Known As (AKA)
Killersatelliten West Germany (video title)
Planitis Gi 2 Greece (video title)
Tierra II Spain (imdb display title)
Ziemia II Poland

Рецензия

DVDInfo


Title: Earth 2 - Земля 2 (1971) DVD5
Size: 4.23 Gb ( 4 433 150,00 KBytes ) - DVD-5
Enabled regions: 1, 2, 3, 4, 5, 6, 7, 8
VTS_01 :
Play Length: 00:02:54
Video: NTSC 4:3 (720x480) VBR
Audio:
English (Dolby AC3, 2 ch)
VTS_02 :
Play Length: 01:37:40
Video: NTSC 4:3 (720x480) VBR
Audio:
Russian (Dolby AC3, 2 ch)
English (Dolby AC3, 2 ch)
VTS_03 :
Play Length: 00:00:11+00:01:00
Video: NTSC 4:3 (720x480) VBR
Audio:
English (Dolby AC3, 2 ch)
* Menus Information *
VIDEO_TS Menu
Video:
NTSC 4:3 (720x480) VBR
English Language Unit :
Title Menu
VTS_01 Menu
Video:
NTSC 16:9 (720x480) VBR
Auto Pan&Scan
English Language Unit :
Root Menu
VTS_02 Menu
Video:
NTSC 16:9 (720x480) VBR
Auto Pan&Scan
English Language Unit :
Root Menu
VTS_03 Menu
Video:
NTSC 16:9 (720x480) VBR
Auto Pan&Scan
English Language Unit :
Root Menu

MediaInfo

General
Complete name : F:\Художественные фильмы\Earth 2 - Земля 2 (1971) DVD5\VIDEO_TS\VTS_02_1.VOB
Format : MPEG-PS
File size : 1 024 MiB
Duration : 23mn 39s
Overall bit rate mode : Variable
Overall bit rate : 6 050 Kbps
Video
ID : 224 (0xE0)
Format : MPEG Video
Format version : Version 2
Format profile : Main@Main
Format settings, BVOP : Yes
Format settings, Matrix : Custom
Format settings, GOP : M=3, N=12
Duration : 23mn 39s
Bit rate mode : Variable
Bit rate : 5 546 Kbps
Maximum bit rate : 8 300 Kbps
Width : 720 pixels
Height : 480 pixels
Display aspect ratio : 4:3
Frame rate : 23.976 fps
Standard : NTSC
Color space : YUV
Chroma subsampling : 4:2:0
Bit depth : 8 bits
Scan type : Progressive
Scan order : 2:3 Pulldown
Compression mode : Lossy
Bits/(Pixel*Frame) : 0.669
Stream size : 939 MiB (92%)
Color primaries : BT.601 NTSC
Transfer characteristics : BT.601
Matrix coefficients : BT.601
Audio #1
ID : 189 (0xBD)-128 (0x80)
Format : AC-3
Format/Info : Audio Coding 3
Mode extension : CM (complete main)
Format settings, Endianness : Big
Muxing mode : DVD-Video
Duration : 23mn 39s
Bit rate mode : Constant
Bit rate : 192 Kbps
Channel(s) : 2 channels
Channel positions : Front: L R
Sampling rate : 48.0 KHz
Bit depth : 16 bits
Compression mode : Lossy
Stream size : 32.5 MiB (3%)
Audio #2
ID : 189 (0xBD)-129 (0x81)
Format : AC-3
Format/Info : Audio Coding 3
Mode extension : CM (complete main)
Format settings, Endianness : Big
Muxing mode : DVD-Video
Duration : 23mn 39s
Bit rate mode : Constant
Bit rate : 192 Kbps
Channel(s) : 2 channels
Channel positions : Front: L R
Sampling rate : 48.0 KHz
Bit depth : 16 bits
Compression mode : Lossy
Stream size : 32.5 MiB (3%)
Menu

Скриншоты


В другом формате: DVDRip-AVC
[Profile] [PM]

kosmoaelita

Gender: Male

Longevity: 7 years 11 months

Posts: 1571

Post 07-Mar-2013 16:44 (after 1 hour 42 minutes)

[Quote]

Большое спасибо!
Только зря, наверное. не включили в диск русские субтитры от Vargnatt
[Profile] [PM]

Guest

Gender: Unknown

Post 18-May-2014 14:18 (after 1 year 2 months)

[Quote]

Прям постарался режиссер с космосом и Космической Станцией.Но до Кубрика с его Одиссеей все же далеко.
Хотя видно,что съемочная группа из кожи вон лезла,чтобы повторить подобные эффекты.
Даже станция очень похожа (внутри) на КС из "Космической Одиссеи".
Да и сюжет,честно говоря, не впечатлил. Все же Артур Кларк-это гений.
А тут все банально и наивно.
Но по сравнению с другими космическими "шедеврами" того времени, этот фильм смотрится очень неплохо.
 

Darth_47 ®

Gender: Male

Longevity: 1 year 2 months

Posts: 685

Post 15-Sep-2019 21:06 (after 5 years 3 months)

[Quote]

Раздача восстановлена в виде DVDRemux'а.
[Profile] [PM]
Display posts:    
Reply to topic

Current time is: 04-Aug 23:26

All times are UTC + 3



You cannot post new topics in this forum
You cannot reply to topics in this forum
You cannot edit your posts in this forum
You cannot delete your posts in this forum
You cannot vote in polls in this forum
You cannot attach files in this forum
You cannot download files in this forum