Гиблые земли / Обреченная земля / Налетчики / Land of Doom / Bad Raiders (Питер Марис / Peter Maris) [1986, США, Фантастика, боевик, триллер, WEBRip-AVC] ПД (НТВ+), СТ (Eazin)

Reply to topic
DL-List and Torrent activity
Size:  1.8 GB   |    Registered:  11 months 2 days   |    Completed:  2 times

Seeder not seen: 4 hours

 
   
 
 
 
Author Message

admin ®

Gender: Male

Longevity: 8 years 1 month

Posts: 4795

Post 05-Sep-2012 18:56

[Quote]

Гиблые земли / Обреченная земля / Налетчики / Land of Doom / Bad Raiders
Страна: США, Matterhorn
Жанр: Фантастика, боевик, постапокалипсис
Год выпуска: 1986
Продолжительность: 01:27:25
Перевод 1: Профессиональный (двухголосый) HTB+
Перевод 2: Субтитры (Eazin)
Режиссер: Питер Марис / Peter Maris
В ролях:
Deborah Rennard ... Harmony
Garrick Dowhen ... Anderson
Daniel Radell ... Demister / Slater
Frank Garret ... Purvis
Richard Allen ... Halsey
Akut Duz ... Orland
Bruno Chambon ... Man in Cabin
Fatosh Celik ... Village Woman
Hulta Palanci ... Village Woman
Ellen Caborn ... Village Woman
Sondra Farrell ... Village Woman
Keith Bordie ... Raider
Robie Stein ... Raider
Jason Koch ... Raider
Joseph Costello ... Raider
Описание: Земля была опустошенной ядерной войной, солдат удачи помогает женщине воину в ее путешествии в поисках места под названием "Рай". По пути они вынуждены вступать в битву с бандитами и преодолевать другие опасности.
Качество видео: WEBRip-AVC
Формат видео: MKV
Видео: x264, 2500 кбит/с, 1024x552, 23,976 к/с
Аудио 1: Русский ПД (HTB+) (AC3, 2 ch, 224 Кбит/с)
Аудио 2: Английский (AC3, 2 ch, 224 Кбит/с)
Субтитры: Русские (Eazin), английские
Работа над релизом:
Видеоряд найден на rarbg2018.org
Синхронизация русской дорожки - kosmoaelita
Синхронизация русских субтитров - kosmoaelita



Пример русской озвучки

Дополнительно

Другие названия:
Bad Raiders West Germany (TV title)
Le monde des maudits France
Tuomittujen maa Finland

MediaInfo

Общее
Уникальный идентификатор : 239230969133238865093151341855119889019 (0xB3FA356DE0A6FB07BEAF309F0A05D27B)
Полное имя : N:\BD-DISC\Land.Of.Doom.1986.1080p.AMZN.WEBRip.DDP2.0.x264-SbR\Land Of Doom 1986.x264.WEBRip.AVC.Rus.kosmoaelita.mkv
Формат : Matroska
Версия формата : Version 4
Размер файла : 1,80 Гбайт
Продолжительность : 1 ч. 27 м.
Общий поток : 2952 Кбит/сек
Название фильма : Гиблые земли / Обреченная земля / Налетчики / Land of Doom / Bad Raiders / 1986 / kosmoaelita
Дата кодирования : UTC 2019-11-27 03:52:19
Программа кодирования : mkvmerge v7.8.0 ('River Man') 32bit built on Mar 27 2015 16:18:02
Библиотека кодирования : libebml v1.3.1 + libmatroska v1.4.2
Attachments : Land.Of.Doom.1986..mkv.encoding.log / poster.jpg
Видео
Идентификатор : 1
Формат : AVC
Формат/Информация : Advanced Video Codec
Профиль формата : High@L4.1
Настройки формата : CABAC / 8 Ref Frames
Параметр CABAC формата : Да
Параметр RefFrames формата : 8 кадров
Идентификатор кодека : V_MPEG4/ISO/AVC
Продолжительность : 1 ч. 27 м.
Битрейт : 2500 Кбит/сек
Ширина : 1024 пикселя
Высота : 552 пикселя
Соотношение сторон : 1,85:1
Режим частоты кадров : Постоянный
Частота кадров : 23,976 кадра/сек
Цветовое пространство : YUV
Субдискретизация насыщенности : 4:2:0
Битовая глубина : 8 бит
Тип развёртки : Прогрессивная
Бит/(Пиксели*Кадры) : 0.184
Размер потока : 1,49 Гбайт (83%)
Заголовок : http://kosmoaelita.com/viewtopic.php?t=60
Библиотека кодирования : x264 core 130 r2273 b3065e6
Настройки программы : cabac=1 / ref=8 / deblock=1:-2:-2 / analyse=0x3:0x131 / me=umh / subme=11 / psy=1 / psy_rd=0.99:0.14 / mixed_ref=1 / me_range=24 / chroma_me=1 / trellis=2 / 8x8dct=1 / cqm=0 / deadzone=21,11 / fast_pskip=1 / chroma_qp_offset=-3 / threads=6 / lookahead_threads=1 / sliced_threads=0 / nr=0 / decimate=1 / interlaced=0 / bluray_compat=0 / constrained_intra=0 / bframes=8 / b_pyramid=2 / b_adapt=2 / b_bias=0 / direct=3 / weightb=1 / open_gop=0 / weightp=2 / keyint=210 / keyint_min=21 / scenecut=40 / intra_refresh=0 / rc_lookahead=80 / rc=2pass / mbtree=1 / bitrate=2500 / ratetol=1.0 / qcomp=0.65 / qpmin=0 / qpmax=69 / qpstep=4 / cplxblur=20.0 / qblur=0.5 / ip_ratio=1.25 / aq=1:0.90
Язык : English
Default : Да
Forced : Нет
Цветовой диапазон : Limited
Основные цвета : BT.709
Характеристики трансфера : BT.709
Коэффициенты матрицы : BT.709
Аудио #1
Идентификатор : 2
Формат : AC-3
Формат/Информация : Audio Coding 3
Коммерческое название : Dolby Digital
Идентификатор кодека : A_AC3
Продолжительность : 1 ч. 27 м.
Вид битрейта : Постоянный
Битрейт : 224 Кбит/сек
Каналы : 2 канала
ChannelLayout : L R
Частота : 48,0 КГц
Частота кадров : 31,250 кадров/сек (1536 SPF)
Метод сжатия : С потерями
Размер потока : 140 Мбайт (8%)
Заголовок : Русский ПД (НТВ+)
Язык : Russian
ServiceKind/String : Complete Main
Default : Да
Forced : Нет
Аудио #2
Идентификатор : 3
Формат : AC-3
Формат/Информация : Audio Coding 3
Коммерческое название : Dolby Digital
Идентификатор кодека : A_AC3
Продолжительность : 1 ч. 27 м.
Вид битрейта : Постоянный
Битрейт : 224 Кбит/сек
Каналы : 2 канала
ChannelLayout : L R
Частота : 48,0 КГц
Частота кадров : 31,250 кадров/сек (1536 SPF)
Метод сжатия : С потерями
Размер потока : 140 Мбайт (8%)
Язык : English
ServiceKind/String : Complete Main
Default : Нет
Forced : Нет
Текст #1
Идентификатор : 4
Формат : PGS
Режим смешивания : zlib
Идентификатор кодека : S_HDMV/PGS
Идентификатор кодека/Информация : Picture based subtitle format used on BDs/HD-DVDs
Заголовок : Русский (Eazin) .PGS - перевод с англ. субтитров
Язык : Russian
Default : Да
Forced : Нет
Текст #2
Идентификатор : 5
Формат : UTF-8
Идентификатор кодека : S_TEXT/UTF8
Идентификатор кодека/Информация : UTF-8 Plain Text
Заголовок : Русский (Eazin) .srt - перевод с англ. субтитров
Язык : Russian
Default : Нет
Forced : Нет
Текст #3
Идентификатор : 6
Формат : UTF-8
Идентификатор кодека : S_TEXT/UTF8
Идентификатор кодека/Информация : UTF-8 Plain Text
Заголовок : SDH
Язык : English
Default : Нет
Forced : Нет

Скриншоты















Скринлист

cd Рип дополнительно залит на ОБЛАКО cd2
Land Of Doom 1986.x264.WEBRip.AVC.Rus.kosmoaelita.mkv.torrent
Torrent: Registered [ 2019-11-27 07:01 ]

Download .torrent

Download

9 KB

Status: checked
Completed: 2 times
Size: 1.8 GB
 


Last edited by admin on 2019-11-27 07:02; edited 11 times in total
[Profile] [PM]

admin ®

Gender: Male

Longevity: 8 years 1 month

Posts: 4795

Post 09-Jul-2015 16:54 (after 2 years 10 months)

[Quote]

Добавлена русская озвучка
[Profile] [PM]

admin ®

Gender: Male

Longevity: 8 years 1 month

Posts: 4795

Post 27-Nov-2019 07:01 (after 4 years 4 months)

[Quote]

Замена на WEBRip-AVC
[Profile] [PM]
Display posts:    
Reply to topic

Current time is: 30-Oct 04:30

All times are UTC + 3



You cannot post new topics in this forum
You cannot reply to topics in this forum
You cannot edit your posts in this forum
You cannot delete your posts in this forum
You cannot vote in polls in this forum
You cannot attach files in this forum
You can download files in this forum