Гиблые земли / Обреченная земля / Налетчики / Land of Doom / Bad Raiders (Питер Марис / Peter Maris) [1986, США, Фантастика, боевик, триллер, HDTVRip] ПД (НТВ+), СТ (Eazin)

Reply to topic
DL-List and Torrent activity
Size:  1.48 GB   |    Registered:  4 years 2 months   |    Completed:  1 time

Seeder not seen: 10 months 20 days

 
   
 
 
 
Author Message

admin ®

Gender: Male

Longevity: 7 years

Posts: 4725

Location: Україна

Post 05-Sep-2012 18:56

[Quote]

Гиблые земли / Обреченная земля / Налетчики / Land of Doom / Bad Raiders
Страна: США, Matterhorn
Жанр: Фантастика, боевик, постапокалипсис, триллер
Год выпуска: 1986
Продолжительность: 01:23:47
Перевод 1: ПД ( НТВ+)
Перевод 2: Субтитры ( Eazin)
Режиссер: Питер Марис / Peter Maris
В ролях: Дебора Реннард, Даниэль Рэдэр, Фрэнк Гаррет, Ричард Аллен, Акат Даз, Бруно Шамбон
Описание: Земля была опустошенной ядерной войной, солдат удачи помогает женщине воину в ее путешествии в поисках места под названием «Рай». По пути они вынуждены вступать в битву с бандитами и преодолевать другие опасности.
Качество видео: HDTVRip
Формат видео: MKV
Видео: XviD, 2088 кб/с, 720x400, 25 к/с
Аудио: Русский ПД (НТВ+) (AC3, 2 кн, 192 Кбит/с)
Аудио: Английский (AC3, 2 кн, 192 Кбит/с)
Субтитры 1: Русские, VobSub
Субтитры 2: Русские, srt
Субтитры 3: Английские, srt


Пример русской озвучки

Релиз

За предоставленный рип благодарим Ledy_X
Субтитры - Eazin

Дополнительно

Другие названия:
Bad Raiders West Germany (TV title)
Le monde des maudits France
Tuomittujen maa Finland

MediaInfo

Общее
Уникальный идентификатор : 222501852573690331265272064660513496052 (0xA7644C4D5AA8A020A15DAB0B5F3C1BF4)
Полное имя : H:\1111\LAND_OF_DOOM-CG\Land of Doom 1986.XviD.SATRip.Rus.mkv
Формат : Matroska
Версия формата : Version 4 / Version 2
Размер файла : 1,48 Гбайт
Продолжительность : 1 ч. 23 м.
Общий поток : 2522 Кбит/сек
Название фильма : Гиблые земли / Обреченная земля / Налетчики / Land of Doom / Bad Raiders / 1986 / kosmoaelita
Дата кодирования : UTC 2015-07-09 13:38:47
Программа кодирования : mkvmerge v6.6.0 ('The Edge Of The In Between') built on Dec 1 2013 17:55:00
Библиотека кодирования : libebml v1.3.0 + libmatroska v1.4.1
Видео
Идентификатор : 1
Формат : MPEG-4 Visual
Профиль формата : Advanced Simple@L5
Параметр BVOP формата : 1
Параметр QPel формата : Нет
Параметр GMC формата : Без точки перехода
Параметр матрицы формата : Default (MPEG)
Идентификатор кодека : V_MS/VFW/FOURCC / XVID
Идентификатор кодека/Подсказка : XviD
Продолжительность : 1 ч. 23 м.
Битрейт : 2088 Кбит/сек
Ширина : 720 пикселей
Высота : 400 пикселей
Соотношение сторон : 16:9
Режим частоты кадров : Постоянный
Частота кадров : 25,000 кадров/сек
Цветовое пространство : YUV
Субдискретизация насыщенности : 4:2:0
Битовая глубина : 8 бит
Тип развёртки : Прогрессивная
Метод сжатия : С потерями
Бит/(Пиксели*Кадры) : 0.290
Размер потока : 1,22 Гбайт (83%)
Заголовок : kosmoaelita
Библиотека кодирования : XviD 1.2.1 (UTC 2008-12-04)
Default : Да
Forced : Нет
Аудио #1
Идентификатор : 2
Формат : AC-3
Формат/Информация : Audio Coding 3
Расширение режима : CM (complete main)
Параметр Endianness формата : Big
Идентификатор кодека : A_AC3
Продолжительность : 1 ч. 23 м.
Вид битрейта : Постоянный
Битрейт : 192 Кбит/сек
Каналы : 2 канала
Расположение каналов : Front: L R
Частота : 48,0 КГц
Битовая глубина : 16 бит
Метод сжатия : С потерями
Размер потока : 115 Мбайт (8%)
Заголовок : ПД (НТВ+)
Язык : Russian
Default : Да
Forced : Нет
Аудио #2
Идентификатор : 3
Формат : AC-3
Формат/Информация : Audio Coding 3
Расширение режима : CM (complete main)
Параметр Endianness формата : Big
Идентификатор кодека : A_AC3
Продолжительность : 1 ч. 23 м.
Вид битрейта : Постоянный
Битрейт : 192 Кбит/сек
Каналы : 2 канала
Расположение каналов : Front: L R
Частота : 48,0 КГц
Битовая глубина : 16 бит
Метод сжатия : С потерями
Размер потока : 115 Мбайт (8%)
Язык : English
Default : Нет
Forced : Нет
Текст #1
Идентификатор : 4
Формат : VobSub
Режим смешивания : zlib
Идентификатор кодека : S_VOBSUB
Идентификатор кодека/Информация : The same subtitle format used on DVDs
Заголовок : Русский (Eazin) VobSub - перевод с англ. субтитров
Язык : Russian
Default : Да
Forced : Нет
Текст #2
Идентификатор : 5
Формат : UTF-8
Идентификатор кодека : S_TEXT/UTF8
Идентификатор кодека/Информация : UTF-8 Plain Text
Заголовок : Русский (Eazin) srt - перевод с англ. субтитров
Язык : Russian
Default : Нет
Forced : Нет
Текст #3
Идентификатор : 6
Формат : UTF-8
Идентификатор кодека : S_TEXT/UTF8
Идентификатор кодека/Информация : UTF-8 Plain Text
Язык : English
Default : Нет
Forced : Нет

Пример субтитров

19
00:02:31,676 --> 00:02:36,604
Я непомню, с чего началась Последняя Война.
Да это уже и неважно.
20
00:02:36,978 --> 00:02:40,456
Все что нам осталось - так это выживать.
21
00:02:40,576 --> 00:02:42,950
Это заброшенный мир.
22
00:02:43,070 --> 00:02:45,459
Без надежды.
23
00:02:45,579 --> 00:02:49,221
Загрязненный радиацией,
кишащий различными болезнями.
24
00:02:49,341 --> 00:02:51,774
Абсолютно непригодный для жизни людей.
25
00:02:52,504 --> 00:02:54,625
Еда практически закончилась.
26
00:02:54,745 --> 00:02:58,753
А та, которая еще осталась, отбиралась
у людей бандами озверевших рейдеров
27
00:02:58,873 --> 00:03:03,311
во главе со своими безумными лидерами уничтожающими
последних человеческих существ на планете.
28
00:03:05,031 --> 00:03:07,209
Эта деревня моя!
29
00:03:10,821 --> 00:03:13,832
Не знаю, смогу ли я
выжить в этом безумии.
30
00:03:14,190 --> 00:03:17,717
а быть может мне суждено
погибнуть в бою,
31
00:03:17,837 --> 00:03:21,587
Но одно я знаю точно.
Я должна попытаться выжить.
32
00:03:21,959 --> 00:03:23,880
Жгите всё!
33
00:03:37,505 --> 00:03:39,798
Давайте сюда!
34
00:03:46,150 --> 00:03:49,447
Живей, проверьте здание!

Скриншоты












Скринлист

cd Рип дополнительно залит на ОБЛАКО cd2
Land of Doom 1986.XviD.SATRip.Rus.mkv.torrent
Torrent: Registered [ 2015-07-09 16:53 ]

Download .torrent

Download

59 KB

Status: checked
Completed: 1 times
Size: 1.48 GB
 


Last edited by admin on 2016-02-05 22:03; edited 7 times in total
[Profile] [PM]

admin ®

Gender: Male

Longevity: 7 years

Posts: 4725

Location: Україна

Post 09-Jul-2015 16:54 (after 2 years 10 months)

[Quote]

Добавлена русская озвучка
[Profile] [PM]
Display posts:    
Reply to topic

Current time is: 21-Sep 01:37

All times are UTC + 3



You cannot post new topics in this forum
You cannot reply to topics in this forum
You cannot edit your posts in this forum
You cannot delete your posts in this forum
You cannot vote in polls in this forum
You cannot attach files in this forum
You can download files in this forum