Фаэтон - сын Солнца [1972 г., Минимульт, WEB-DL] СССР

Reply to topic
 
Author Message

Guest ®

Gender: Unknown

Post 20-Feb-2013 20:44

[Quote]

Фаэтон - сын Солнца
Год выпуска: 1972
Страна: СССР
Жанр: Sci-Fi, мультфильм-гипотеза
Продолжительность: 00:16:35
Перевод: Не требуется
Режиссер: Василий Ливанов
Роли озвучивали:Юрий Яковлев, Алексей Консовский, Мария Бабанова, Николай Бурляев
Описание: О возможном посещении Земли в древности цивилизацией гипотетической погибшей планеты Фаэтон.
Научный мультфильм, вобравший в себя идеи советской космологии и событий прошлого. В мультфильме рассказывается про некую десятую планету с названием Фаэтон. Необычные феномены этой планеты пытаются растолковать используя древнегреческую мифологию

Доп. информация: (eng sub)
Качество: WEB-DL
Формат: MKV
Видео: x264 720x540 (4:3) 25fps 1761kbps
Аудио: Dolby AC3 192kHz mono
Субтитры: Английские (на короткую версию)

Дополнительно

Рецензия

MediaInfo

Общее
Уникальный идентификатор : 225286268668459668251045711457633981738 (0xA97C8E9D5EE26F5095F2993E2DFC552A)
Полное имя : F:\Фаэтон - Сын Солнца 1972.x264.WEBDL.mkv
Формат : Matroska
Версия формата : Version 4 / Version 2
Размер файла : 233 Мбайт
Продолжительность : 16 м.
Общий поток : 1992 Кбит/сек
Дата кодирования : UTC 2013-03-08 08:56:59
Программа кодирования : mkvmerge v6.1.0 ('Old Devil') built on Mar 4 2013 09:10:42
Библиотека кодирования : libebml v1.3.0 + libmatroska v1.4.0
Attachment : Yes
Видео
Идентификатор : 1
Формат : AVC
Формат/Информация : Advanced Video Codec
Профиль формата : High@L4.1
Параметр CABAC формата : Да
Параметр ReFrames формата : 12 кадров
Идентификатор кодека : V_MPEG4/ISO/AVC
Продолжительность : 16 м.
Битрейт : 1761 Кбит/сек
Ширина : 720 пикселей
Высота : 540 пикселей
Соотношение сторон : 4:3
Режим частоты кадров : Постоянный
Частота кадров : 25,000 кадров/сек
Цветовое пространство : YUV
Субдискретизация насыщенности : 4:2:0
Битовая глубина : 8 бит
Тип развёртки : Прогрессивная
Бит/(Пиксели*Кадры) : 0.181
Размер потока : 206 Мбайт (88%)
Библиотека кодирования : x264 core 125 r2208 d9d2288
Настройки программы : cabac=1 / ref=12 / deblock=1:0:-1 / analyse=0x3:0x133 / me=umh / subme=11 / psy=1 / psy_rd=0.95:0.15 / mixed_ref=1 / me_range=24 / chroma_me=1 / trellis=2 / 8x8dct=1 / cqm=0 / deadzone=21,11 / fast_pskip=1 / chroma_qp_offset=-3 / threads=4 / lookahead_threads=1 / sliced_threads=0 / nr=0 / decimate=1 / interlaced=0 / bluray_compat=0 / constrained_intra=0 / bframes=12 / b_pyramid=2 / b_adapt=2 / b_bias=0 / direct=1 / weightb=1 / open_gop=0 / weightp=2 / keyint=220 / keyint_min=22 / scenecut=40 / intra_refresh=0 / rc_lookahead=60 / rc=crf / mbtree=1 / crf=19.0 / qcomp=0.60 / qpmin=0 / qpmax=69 / qpstep=4 / vbv_maxrate=17500 / vbv_bufsize=14000 / crf_max=0.0 / nal_hrd=none / ip_ratio=1.25 / aq=1:0.80
Default : Да
Forced : Нет
Аудио
Идентификатор : 2
Формат : AC-3
Формат/Информация : Audio Coding 3
Расширение режима : CM (complete main)
Параметр Endianness формата : Big
Идентификатор кодека : A_AC3
Продолжительность : 16 м.
Вид битрейта : Постоянный
Битрейт : 192 Кбит/сек
Каналы : 2 канала
Расположение каналов : Front: L R
Частота : 48,0 КГц
Битовая глубина : 16 бит
Метод сжатия : С потерями
Размер потока : 22,5 Мбайт (10%)
Язык : Russian
Default : Да
Forced : Нет
Текст
Идентификатор : 3
Формат : UTF-8
Идентификатор кодека : S_TEXT/UTF8
Идентификатор кодека/Информация : UTF-8 Plain Text
Язык : English
Default : Да
Forced : Нет

Скриншоты




Last edited by Guest on 2013-02-21 21:17; edited 1 time in total
 

Guest ®

Gender: Unknown

Post 21-Feb-2013 07:47 (after 11 hours)

[Quote]

мой рип и сабы-хехе.
Фаэтон - Сын Солнца
Продолжительность: 01:42
странное время.
 

Guest ®

Gender: Unknown

Post 21-Feb-2013 09:27 (after 1 hour 40 minutes)

[Quote]

в ХД качестве
http://www.tvzavr.ru/Faeton-syn-solntsa
другой источник
http://megogo.net/ru/view/23093-faeton-syn-solnca.html
выбирать 576 кадров
 

admin

Gender: Male

Longevity: 6 years 7 months

Posts: 4727

Location: Україна

Post 08-Mar-2013 05:55 (after 14 days)

[Quote]

Перезалита полная версия и в лучшем качестве (полнее кадр, очищен звук)
[Profile] [PM]

Guest ®

Gender: Unknown

Post 08-Mar-2013 17:34 (after 11 hours)

[Quote]

какой толк от пережатия?
 
Display posts:    
Reply to topic

Current time is: 26-Apr 16:11

All times are UTC + 3.5



You cannot post new topics in this forum
You cannot reply to topics in this forum
You cannot edit your posts in this forum
You cannot delete your posts in this forum
You cannot vote in polls in this forum
You cannot attach files in this forum
You cannot download files in this forum