Космический патруль - корабль Орион / Космический корабль Орион / Raumpatrouille - Die phantastischen Abenteuer des Raumschiffes Orion / Raumpatrouille Raumschiffes Orion / Space Patrol Orion (Михаэль Браун / Michael Braun, Тео Мезгер / Theo Mezger) [1966 г., фантастика, DVDRip] ЛО (den904)

Reply to topic
 
Author Message

admin ®

Gender: Male

Longevity: 9 years 8 months

Posts: 4694

Post 20-Feb-2013 20:05

[Quote]

Космический патруль - корабль Орион / Космический корабль Орион / Raumpatrouille - Die phantastischen Abenteuer des Raumschiffes Orion / Raumpatrouille Raumschiffes Orion / Space Patrol Orion
Год выпуска: 1966
Страна: Германия
Жанр: фантастика
Продолжительность: 7 х 00:58:00
Перевод: Любительский (одноголосый) den904
Режиссер: Михаэль Браун / Michael Braun, Тео Мезгер / Theo Mezger
В ролях: Дитмар Шёнхер, Эва Пфлюг, Вольфганг Вёльц
Описание: То, что вам кажется сказкой сегодня, может стать реальностью завтра. Перед вами одна из таких историй завтрашнего дня.В будущем больше не существует государств, только люди и их колонии рассыпание по безграничному космосу. Мы о сели у далёких звёзд...океаническое дно стало пригодным для жизни. Мы можем двигаться с немыслимой скоростью, космические корабли завтрашнего дня,
путешествуют по Млечному Пути. И один из таких кораблей - Орион, маленький корабль, большой Системы Безопасности, защищающей
Землю от инопланетной угрозы. Давайте присоединимся к Ориону и его команде... к маршрутам патрулирования, на край бесконечности.
Сериал еще называют немецким Стар Треком.

В 2003 году из данного сериала был смонтирован полнометражный фильм Raumpatrouille Orion - Rucksturz ins Kino
http://www.kosmoaelita.com/viewtopic.php?t=193

Качество: DVDRip
Формат: MKV
Видео: x264, ~ 1000 кбит/с, 720x576, 25 к/с
Аудио 1: Русский den904 (AC3, 2 ch, 192 Кбит/с)
Аудио 2: Немецкий (AC3, 6 ch, 448 Кбит/с)
Аудио 3: Немецкий (AC3, 2 ch, 192 Кбит/с)
Субтитры : Английские ()
Работа над релизом:
Рипы с немецких ДВД - sasha20072007
Перевод: любительский одноголосый закадровый den904
Перевод на русский: Skyworker
Отдельное спасибо Anders M Olsson за предоставление Шведских субтитров для перевода
Релиз группы Колобок
ПРОЕКТ "Нет в Кино"



Трейлер

Пример русского перевода

Дополнительно

Also Known As (AKA)
"Őrjárat a kozmoszban - Az Orion űrhajó fantasztikus kalandjai" Hungary
"Ürjárörök - Az Orion ürhajó fantasztikus kalandjai" Hungary (rerun title)
"Commando spatial - La fantastique aventure du vaisseau Orion" France
"Le avventure dell'astronave Orion" Italy (series title)
"Raumpatrouille" West Germany (short title)
"Raumpatrouille - Die Abenteuer des schnellen Raumkreuzers Orion" West Germany (rerun title)
"Raumpatrouille Orion" Germany (DVD box title)
"Raumschiff Orion" West Germany (informal title)
"Rymdpatrullen" Sweden (informal literal title)

Рецензия

MediaInfo

Общее
Уникальный идентификатор : 196158451509354696475841920287552968717 (0x9392BE59FDA164D6AAB40123F856180D)
Полное имя : F:\Raumpatrouille Raumschiffes Orion e01-07x07 1966\Raumpatrouille Orion e01x07.Angriff aus dem All 1966.x264.DVDRip.kosmoaelita.mkv
Формат : Matroska
Версия формата : Version 4 / Version 2
Размер файла : 768 Мбайт
Продолжительность : 58 м.
Общий поток : 1831 Кбит/сек
Название фильма : Raumpatrouille Orion e01x07.Angriff aus dem All 1966 kosmoaelita
Дата кодирования : UTC 2018-08-04 18:40:31
Программа кодирования : mkvmerge v6.6.0 ('The Edge Of The In Between') built on Dec 1 2013 17:55:00
Библиотека кодирования : libebml v1.3.0 + libmatroska v1.4.1
Attachments : poster.jpg / Orion DVD1_T01.mkv.encoding.log
Видео
Идентификатор : 1
Формат : AVC
Формат/Информация : Advanced Video Codec
Профиль формата : High@L4.1
Параметр CABAC формата : Да
Параметр ReFrames формата : 12 кадров
Идентификатор кодека : V_MPEG4/ISO/AVC
Продолжительность : 58 м.
Битрейт : 996 Кбит/сек
Ширина : 720 пикселей
Высота : 556 пикселей
Соотношение сторон : 1,295
Режим частоты кадров : Постоянный
Частота кадров : 25,000 кадров/сек
Цветовое пространство : YUV
Субдискретизация насыщенности : 4:2:0
Битовая глубина : 8 бит
Тип развёртки : Прогрессивная
Бит/(Пиксели*Кадры) : 0.100
Размер потока : 404 Мбайт (53%)
Заголовок : kosmoaelita
Библиотека кодирования : x264 core 125 r2208 d9d2288
Настройки программы : cabac=1 / ref=12 / deblock=1:-1:-1 / analyse=0x3:0x133 / me=umh / subme=10 / psy=1 / psy_rd=0.95:0.15 / mixed_ref=1 / me_range=24 / chroma_me=1 / trellis=2 / 8x8dct=1 / cqm=0 / deadzone=21,11 / fast_pskip=1 / chroma_qp_offset=-3 / threads=4 / lookahead_threads=1 / sliced_threads=0 / nr=0 / decimate=1 / interlaced=0 / bluray_compat=0 / constrained_intra=0 / bframes=12 / b_pyramid=2 / b_adapt=2 / b_bias=0 / direct=3 / weightb=1 / open_gop=0 / weightp=2 / keyint=220 / keyint_min=22 / scenecut=40 / intra_refresh=0 / rc_lookahead=60 / rc=2pass / mbtree=1 / bitrate=996 / ratetol=1.0 / qcomp=0.60 / qpmin=0 / qpmax=69 / qpstep=4 / cplxblur=20.0 / qblur=0.5 / vbv_maxrate=17500 / vbv_bufsize=14000 / nal_hrd=none / ip_ratio=1.30 / aq=1:0.80
Default : Да
Forced : Нет
Цветовой диапазон : Limited
Основные цвета : BT.601 PAL
Характеристики трансфера : BT.470 System B, BT.470 System G
Коэффициенты матрицы : BT.601
Аудио #1
Идентификатор : 2
Формат : AC-3
Формат/Информация : Audio Coding 3
Расширение режима : CM (complete main)
Параметр Endianness формата : Big
Идентификатор кодека : A_AC3
Продолжительность : 58 м.
Вид битрейта : Постоянный
Битрейт : 192 Кбит/сек
Каналы : 2 канала
Расположение каналов : Front: L R
Частота : 48,0 КГц
Частота кадров : 31,250 кадров/сек (1536 spf)
Метод сжатия : С потерями
Размер потока : 80,5 Мбайт (10%)
Заголовок : Русский ЛО (den904) AС3 2.0
Язык : Russian
Default : Да
Forced : Нет
Аудио #2
Идентификатор : 3
Формат : AC-3
Формат/Информация : Audio Coding 3
Расширение режима : CM (complete main)
Параметр Endianness формата : Big
Идентификатор кодека : A_AC3
Продолжительность : 58 м.
Вид битрейта : Постоянный
Битрейт : 448 Кбит/сек
Каналы : 6 каналов
Расположение каналов : Front: L C R, Side: L R, LFE
Частота : 48,0 КГц
Частота кадров : 31,250 кадров/сек (1536 spf)
Метод сжатия : С потерями
Размер потока : 188 Мбайт (24%)
Заголовок : 5.1
Язык : German
Default : Нет
Forced : Нет
Аудио #3
Идентификатор : 4
Формат : AC-3
Формат/Информация : Audio Coding 3
Расширение режима : CM (complete main)
Параметр Endianness формата : Big
Идентификатор кодека : A_AC3
Продолжительность : 58 м.
Вид битрейта : Постоянный
Битрейт : 192 Кбит/сек
Каналы : 2 канала
Расположение каналов : Front: L R
Частота : 48,0 КГц
Частота кадров : 31,250 кадров/сек (1536 spf)
Метод сжатия : С потерями
Размер потока : 80,5 Мбайт (10%)
Заголовок : 2.0
Язык : German
Default : Нет
Forced : Нет
Текст
Идентификатор : 5
Формат : UTF-8
Идентификатор кодека : S_TEXT/UTF8
Идентификатор кодека/Информация : UTF-8 Plain Text
Язык : English
Default : Да
Forced : Нет

Скриншоты



Скринлист

cd Сериал дополнительно залит на mail.ru cd2
[Profile] [PM]

$Shorox

Gender: Male

Longevity: 9 years 5 months

Posts: 1803

Post 22-Feb-2013 01:35 (after 1 day 5 hours)

[Quote]

Знатный сериал. Спасибо. Скачаю потом у вас в этом качестве. Смотрел этот сериал с рутрекера.
[Profile] [PM]

admin ®

Gender: Male

Longevity: 9 years 8 months

Posts: 4694

Post 22-Feb-2013 01:40 (after 5 minutes)

[Quote]

Просил чистый голос, чтобы 5.1 сделать - ни ответа, ни привета
[Profile] [PM]

$Shorox

Gender: Male

Longevity: 9 years 5 months

Posts: 1803

Post 22-Feb-2013 01:46 (after 5 minutes)

[Quote]

admin,
Сериал лихой, странно, что всего один сезон сняли.
[Profile] [PM]

admin ®

Gender: Male

Longevity: 9 years 8 months

Posts: 4694

Post 22-Feb-2013 01:53 (after 7 minutes)

[Quote]

Да, немцы приятно удивили..
[Profile] [PM]
Display posts:    
Reply to topic

Current time is: 28-May 05:11

All times are UTC + 3



You cannot post new topics in this forum
You cannot reply to topics in this forum
You cannot edit your posts in this forum
You cannot delete your posts in this forum
You cannot vote in polls in this forum
You cannot attach files in this forum
You cannot download files in this forum