Незнакомец внутри / The Stranger Within (Ли Филипс / Lee Philips) [1974, США, Фантастика, детектив, DVDRip-AVC] VO В.Котов + Original Eng

Reply to topic
 
Author Message

admin ®

Gender: Male

Longevity: 7 years

Posts: 4725

Location: Україна

Post 05-Sep-2012 16:50

[Quote]

Незнакомец внутри / The Stranger Within
Страна: США, Lorimar Productions
Жанр: Фантастика, детектив
Год выпуска: 1974
Продолжительность: 01:14:14
Перевод: Одноголосый закадровый В.Котов
Cубтитры: нет
Оригинальная аудиодорожка: английский
Режиссер: Ли Филипс / Lee Philips
В ролях: Барбара Иден, Джордж Гриззард, Джойс Ван Пэттен, Дэвид Дойл, Нехемия Персофф
Описание: Будущая мама начинает вести себя странно и не знает почему. Постепенно она начинает понимать, что её странное поведение находится под контролем будущего ребёнка.
Качество видео: DVDRip-AVC
Формат видео: MKV
Видео: x264, 2218 кб/с, 720x552, 23.976 к/с, crf=20
Аудио 1: Русский (MP3, 2кн, 128 Кбит/с)
Аудио 2: Английский (AC3, 2 кн, 192 Кбит/с)

Релиз

Релиз русской дорожки на синемаскопе: Kruger
Озвучка: В.Котов
Рип с ДВД5 с синемагеддона и монтаж - sasha20072007
Лог кодирования и постеры - в контейнере
Сравнение с оригиналом DVD5

Дополнительно

Другие названия:
Die Saat des Alien West Germany (video title)
L'étranger Canada (complete title) (French title)
Trespass (undefined)
Tuntematon yhteys Finland
Um Estranho Ser Brazil
Un extraño dentro de mí Spain (imdb display title)
Страничка на Кинопоиске
Для удаления и добавления дорожек в mkv используйте бесплатную mkvmerge GUI 5.70

MediaInfo

Общее
Уникальный идентификатор : 228988507163211237956772973626333101333 (0xAC459510BC546FF899F710E750E47D15)
Полное имя : F:\Neznakomets.vnutri.1974.x264.DVDRip.sasha20072007.mkv
Формат : Matroska
Версия формата : Version 2
Размер файла : 1,33 Гбайт
Продолжительность : 1 ч. 14 м.
Режим общего битрейта : Переменный
Общий поток : 2575 Кбит/сек
Название фильма : Незнакомец внутри / The Stranger Within / 1974 / rip by sasha20072007 (2012-08-08)
Дата кодирования : UTC 2012-08-07 23:42:41
Программа кодирования : mkvmerge v5.7.0 ('The Whirlwind') built on Jul 30 2012 20:20:16
Библиотека кодирования : libebml v1.2.3 + libmatroska v1.3.0
Attachment : Yes / Yes / Yes / Yes
Видео
Идентификатор : 1
Формат : AVC
Формат/Информация : Advanced Video Codec
Профиль формата : High@L4.1
Параметр CABAC формата : Да
Параметр ReFrames формата : 8 кадров
Идентификатор кодека : V_MPEG4/ISO/AVC
Продолжительность : 1 ч. 14 м.
Битрейт : 2218 Кбит/сек
Ширина : 720 пикселей
Высота : 552 пикселя
Соотношение сторон : 4:3
Частота кадров : 23,976 кадра/сек
Цветовое пространство : YUV
Субдискретизация насыщенности : 4:2:0
Битовая глубина : 8 бит
Тип развёртки : Прогрессивная
Бит/(Пиксели*Кадры) : 0.233
Размер потока : 1,15 Гбайт (86%)
Библиотека кодирования : x264 core 125 r2200 999b753
Настройки программы : cabac=1 / ref=8 / deblock=1:-2:-2 / analyse=0x3:0x133 / me=umh / subme=11 / psy=1 / psy_rd=1.00:0.20 / mixed_ref=1 / me_range=24 / chroma_me=1 / trellis=2 / 8x8dct=1 / cqm=0 / deadzone=21,11 / fast_pskip=1 / chroma_qp_offset=-3 / threads=6 / lookahead_threads=1 / sliced_threads=0 / nr=0 / decimate=1 / interlaced=0 / bluray_compat=0 / constrained_intra=0 / bframes=8 / b_pyramid=2 / b_adapt=2 / b_bias=0 / direct=1 / weightb=1 / open_gop=0 / weightp=2 / keyint=220 / keyint_min=22 / scenecut=40 / intra_refresh=0 / rc_lookahead=60 / rc=crf / mbtree=1 / crf=20.0 / qcomp=0.60 / qpmin=0 / qpmax=69 / qpstep=4 / vbv_maxrate=17500 / vbv_bufsize=14000 / crf_max=0.0 / nal_hrd=none / ip_ratio=1.30 / aq=1:0.80
Default : Да
Forced : Нет
Основные цвета : BT.601-6 525, BT.1358 525, BT.1700 NTSC, SMPTE 170M
Характеристики трансфера : BT.601-6 525, BT.601-6 625, BT.1358 525, BT.1358 625, BT.1700 NTSC, SMPTE 170M
Коэффициенты матрицы : BT.601-6 525, BT.1358 525, BT.1700 NTSC, SMPTE 170M
Аудио #1
Идентификатор : 2
Формат : MPEG Audio
Версия формата : Version 1
Профиль формата : Layer 3
Режим : Joint stereo
Расширение режима : MS Stereo
Идентификатор кодека : A_MPEG/L3
Идентификатор кодека/Подсказка : MP3
Продолжительность : 1 ч. 14 м.
Вид битрейта : Переменный
Битрейт : 114 Кбит/сек
Номинальный битрейт : 128 Кбит/сек
Каналы : 2 канала
Частота : 48,0 КГц
Метод сжатия : С потерями
Размер потока : 60,4 Мбайт (4%)
Заголовок : Русский (В.Котов)
Библиотека кодирования : LAME3.98r
Настройки программы : -m j -V 4 -q 2 -lowpass 17 --abr 128
Язык : Russian
Default : Да
Forced : Нет
Аудио #2
Идентификатор : 3
Формат : AC-3
Формат/Информация : Audio Coding 3
Расширение режима : CM (complete main)
Параметр Endianness формата : Big
Идентификатор кодека : A_AC3
Продолжительность : 1 ч. 14 м.
Вид битрейта : Постоянный
Битрейт : 192 Кбит/сек
Каналы : 2 канала
Расположение каналов : Front: L R
Частота : 48,0 КГц
Битовая глубина : 16 бит
Метод сжатия : С потерями
Размер потока : 102 Мбайт (7%)
Язык : English
Default : Нет
Forced : Нет
Меню
00:00:00.000 : :Chapter 01
00:10:00.500 : :Chapter 02
00:20:00.000 : :Chapter 03
00:30:00.000 : :Chapter 04
00:40:00.500 : :Chapter 05
00:50:00.000 : :Chapter 06
01:00:00.500 : :Chapter 07
01:10:00.000 : :Chapter 08

Скриншоты


Скринлист

cd Рип дополнительно залит на ОБЛАКО cd2
[Profile] [PM]
Display posts:    
Reply to topic

Current time is: 18-Sep 08:15

All times are UTC + 3



You cannot post new topics in this forum
You cannot reply to topics in this forum
You cannot edit your posts in this forum
You cannot delete your posts in this forum
You cannot vote in polls in this forum
You cannot attach files in this forum
You cannot download files in this forum