Шандар, уменьшенный город / Shandar / The Shrunken City (Тед Николау / Тед Николау) [1998 г., фантастика, приключения, семейный, DVDRip] ЛО (den904), СТ (kosmoaelita-Severnyj)

Reply to topic
 
Author Message

admin ®

Gender: Male

Longevity: 6 years 8 months

Posts: 4725

Location: Україна

Post 09-Feb-2013 03:19

[Quote]

Шандар, уменьшенный город / Shandar / The Shrunken City
Релиз - kosmoaelita.com
Год выпуска: 1998
Страна: Румыния, Castel Film Romania
Жанр: фантастика, приключения, семейный
Продолжительность: 01:19:23
Перевод: ЛО den904 по субтитрам от (kosmoaelita-Severnyj)
Режиссер: Тед Николау
В ролях: Майкл Малота, Агнес Бракнер, Жуль Мэндел, Стив Валентайн, Рэй Ласка, Дорина Лазэр, Кристофер Ландри, Лула Малота, Andreea Macelaru, Йон Хайдук
Описание: Джордж и Лори находят загадочный сосуд, внутри которого расположен самый настоящий микроскопический мегаполис. Вскоре выясняется, что город имеет космическое происхождение, а его обитателям угрожает шайка галактических пиратов, стремящихся заполучить имеющийся в городе мощнейший источник энергии.
Качество: DVDRip
Формат: MKV
Видео: x264, 1635 кбит/с, 720x544, 23.976 к/с
Аудио 1: Русский ЛО (den904) (AC3, 2 ch, 192 Кбит/с)
Аудио 2: Английский (AC3, 2 ch, 192 Кбит/с)
Субтитры : Русские (Severnyj)
Работа над релизом:
Релиз kosmoaelita.com
Рип с ДВД5 с синемагеддона - sasha20072007
Перевод на слух с английского по заказу kosmoaelita - Severnyj
Русская озвучка по заказу kosmoaelita - den904
Спонсор русской озвучки - Андрей Берг



Трейлер

Дополнительно

рейтинг MPAA рекомендуется присутствие родителей
слоган «Two young heroes. One small town.»
Also Known As (AKA)
A Cidade Miniatura Brazil (TV title)
Shandar - Das Geheimnis der verborgenen Stadt Germany
Shandar - The Shrunken City! USA (DVD box title)

Рецензия

MediaInfo

Общее
Уникальный идентификатор : 170202601762819920800687564232321777188 (0x800BD427F62068F89F117B82CE4DBE24)
Полное имя : N:\Shandar The Shrunken City 1998.x264.DVDRip.Rus.kosmoaelita.mkv
Формат : Matroska
Версия формата : Version 4 / Version 2
Размер файла : 1,14 Гбайт
Продолжительность : 1 ч. 19 м.
Общий поток : 2057 Кбит/сек
Название фильма : Шандар, уменьшенный город / Shandar (The Shrunken City) / 1998 / rip by sasha20072007
Дата кодирования : UTC 2017-04-08 17:58:54
Программа кодирования : mkvmerge v6.6.0 ('The Edge Of The In Between') built on Dec 1 2013 17:55:00
Библиотека кодирования : libebml v1.3.0 + libmatroska v1.4.1
Attachments : Poster.jpg / Shandar (The Shrunken City)-SER_T01 22.mkv.encoding.log
Видео
Идентификатор : 1
Формат : AVC
Формат/Информация : Advanced Video Codec
Профиль формата : High@L4.1
Параметр CABAC формата : Да
Параметр ReFrames формата : 8 кадров
Идентификатор кодека : V_MPEG4/ISO/AVC
Продолжительность : 1 ч. 19 м.
Битрейт : 1632 Кбит/сек
Ширина : 720 пикселей
Высота : 544 пикселя
Соотношение сторон : 4:3
Режим частоты кадров : Постоянный
Частота кадров : 23,976 (24000/1001) кадра/сек
Цветовое пространство : YUV
Субдискретизация насыщенности : 4:2:0
Битовая глубина : 8 бит
Тип развёртки : Прогрессивная
Бит/(Пиксели*Кадры) : 0.174
Размер потока : 927 Мбайт (79%)
Заголовок : kosmoaelita
Библиотека кодирования : x264 core 124 r2197 69a0443
Настройки программы : cabac=1 / ref=8 / deblock=1:-2:-2 / analyse=0x3:0x133 / me=umh / subme=11 / psy=1 / psy_rd=1.00:0.20 / mixed_ref=1 / me_range=24 / chroma_me=1 / trellis=2 / 8x8dct=1 / cqm=0 / deadzone=21,11 / fast_pskip=1 / chroma_qp_offset=-3 / threads=6 / sliced_threads=0 / nr=0 / decimate=1 / interlaced=0 / bluray_compat=0 / constrained_intra=0 / bframes=8 / b_pyramid=2 / b_adapt=2 / b_bias=0 / direct=1 / weightb=1 / open_gop=0 / weightp=2 / keyint=220 / keyint_min=22 / scenecut=40 / intra_refresh=0 / rc_lookahead=60 / rc=crf / mbtree=1 / crf=22.0 / qcomp=0.60 / qpmin=0 / qpmax=69 / qpstep=4 / vbv_maxrate=17500 / vbv_bufsize=14000 / crf_max=0.0 / nal_hrd=none / ip_ratio=1.26 / aq=1:0.70
Default : Да
Forced : Нет
Цветовой диапазон : Limited
Основные цвета : BT.601 NTSC
Характеристики трансфера : BT.601
Коэффициенты матрицы : BT.601
Аудио #1
Идентификатор : 2
Формат : AC-3
Формат/Информация : Audio Coding 3
Расширение режима : CM (complete main)
Параметр Endianness формата : Big
Идентификатор кодека : A_AC3
Продолжительность : 1 ч. 19 м.
Вид битрейта : Постоянный
Битрейт : 192 Кбит/сек
Каналы : 2 канала
Расположение каналов : Front: L R
Частота : 48,0 КГц
Частота кадров : 31,250 кадров/сек (1536 spf)
Метод сжатия : С потерями
Размер потока : 109 Мбайт (9%)
Заголовок : Русский ЛО (den904 для kosmoaelita.com) - поддержка А.Берг
Язык : Russian
Default : Да
Forced : Нет
Аудио #2
Идентификатор : 3
Формат : AC-3
Формат/Информация : Audio Coding 3
Расширение режима : CM (complete main)
Параметр Endianness формата : Big
Идентификатор кодека : A_AC3
Продолжительность : 1 ч. 19 м.
Вид битрейта : Постоянный
Битрейт : 192 Кбит/сек
Каналы : 2 канала
Расположение каналов : Front: L R
Частота : 48,0 КГц
Частота кадров : 31,250 кадров/сек (1536 spf)
Метод сжатия : С потерями
Размер потока : 109 Мбайт (9%)
Язык : English
Default : Нет
Forced : Нет
Текст #1
Идентификатор : 4
Формат : VobSub
Режим смешивания : zlib
Идентификатор кодека : S_VOBSUB
Идентификатор кодека/Информация : Picture based subtitle format used on DVDs
Заголовок : Русский (kosmoaelita-Severnyj) VobSub
Язык : Russian
Default : Да
Forced : Нет
Текст #2
Идентификатор : 5
Формат : UTF-8
Идентификатор кодека : S_TEXT/UTF8
Идентификатор кодека/Информация : UTF-8 Plain Text
Заголовок : Русский (kosmoaelita-Severnyj) srt
Язык : Russian
Default : Нет
Forced : Нет
Меню
00:00:00.000 : :Chapter 01
00:02:16.000 : :Chapter 02
00:06:18.000 : :Chapter 03
00:15:22.000 : :Chapter 04
00:21:07.000 : :Chapter 05
00:27:33.500 : :Chapter 06
00:37:26.500 : :Chapter 07
00:46:23.500 : :Chapter 08
00:54:35.000 : :Chapter 09
00:59:19.000 : :Chapter 10
01:06:03.000 : :Chapter 11
01:14:21.500 : :Chapter 12

Пример субтитров

1
00:00:03,178 --> 00:00:06,064
Релиз
www.kosmoaelita.com
2
00:00:29,178 --> 00:00:34,064
"Шандар, уменьшенный город"
(Shandar (The Shrunken City) 1998г)
3
00:03:11,756 --> 00:03:12,876
Лори!
4
00:03:14,537 --> 00:03:15,654
Лори!
5
00:03:16,856 --> 00:03:18,676
- Джордж?
- Выходи!
6
00:03:19,662 --> 00:03:22,201
- Что ты делаешь?
- Мне нужно поговорить с тобой!
7
00:03:28,320 --> 00:03:32,715
- Ты с ума сошёл? Сейчас 6 часов утра!
- Точнее говоря, 6:13
8
00:03:32,778 --> 00:03:35,668
- Как раз успели!
- Куда успели?
9
00:03:35,691 --> 00:03:37,591
Быстрее, одевайся, я должен тебе
кое-что показать.
10
00:03:37,678 --> 00:03:42,068
- Покажи позже, Джордж, сейчас я сплю.
- Позже нельзя, будет слишком много людей.
11
00:03:42,269 --> 00:03:43,756
Вокруг чего будет много людей?
12
00:03:43,880 --> 00:03:46,536
- Вокруг того, что я хочу показать.
- И что это?
13
00:03:46,591 --> 00:03:50,614
- Что-то удивительное!
- Джордж - это начинает мне надоедать.
14
00:03:50,724 --> 00:03:54,873
- Что там удивительного?
- Лори, хватит задавать вопросы, поспешим!
----------------------------
691
01:14:14,644 --> 01:14:16,744
Мы тоже вас будем вспоминать.
692
01:14:28,490 --> 01:14:31,169
Зал Героев, круто, да?
693
01:14:31,270 --> 01:14:34,373
А почему бы и нет, мы спасли
целую цивилизацию.
694
01:14:34,475 --> 01:14:36,273
Две цивилизации.
695
01:14:36,304 --> 01:14:38,851
А вот что мы скажем нашим родителям?
696
01:14:53,304 --> 01:14:57,851
Перевод на слух с англ. и субтитры: Severnyj
Ред. sasha20072007
февраль, 2013 г

Скринлист

[Profile] [PM]

Susanin

Gender: Male

Longevity: 5 years 1 month

Posts: 812

Post 04-Dec-2016 09:54 (after 3 years 9 months)

[Quote]

Кто смотрел - как фильм?
[Profile] [PM]

kosmoaelita

Gender: Male

Longevity: 6 years 8 months

Posts: 965

Location: Украина

Post 04-Dec-2016 14:29 (after 4 hours)

[Quote]

Семейный - для детей
[Profile] [PM]

Susanin

Gender: Male

Longevity: 5 years 1 month

Posts: 812

Post 04-Dec-2016 14:58 (after 29 minutes)

[Quote]

Раздайте? bk
[Profile] [PM]

croMAG

Gender: Male

Longevity: 3 years 8 months

Posts: 2137

Location: Прибалтика

Post 04-Dec-2016 15:19 (after 20 minutes)

[Quote]

Susanin, Что то Сусанин ты в трехгодичные дебри повадился ag
[Profile] [PM]

Susanin

Gender: Male

Longevity: 5 years 1 month

Posts: 812

Post 04-Dec-2016 15:58 (after 39 minutes)

[Quote]

Догребаю непросмотренное zmuzika-642
[Profile] [PM]

kosmoaelita

Gender: Male

Longevity: 6 years 8 months

Posts: 965

Location: Украина

Post 08-Apr-2017 21:18 (after 4 months 4 days)

[Quote]

Добавлена русская озвучка от den904
[Profile] [PM]
Display posts:    
Reply to topic

Current time is: 27-May 06:11

All times are UTC + 3



You cannot post new topics in this forum
You cannot reply to topics in this forum
You cannot edit your posts in this forum
You cannot delete your posts in this forum
You cannot vote in polls in this forum
You cannot attach files in this forum
You cannot download files in this forum