Землеройки-убийцы (цветной) / The Killer Shrews (Рэй Келлогг / Ray Kellogg) [1959, США, Фантастика, ужасы, DVDRip-AVC] VO (Трамвай-фильм) + Sub Por + Original Eng

Reply to topic
 
Author Message

admin ®

Gender: Male

Longevity: 7 years

Posts: 4725

Location: Україна

Post 05-Sep-2012 16:46

[Quote]

Землеройки-убийцы (цветной) / The Killer Shrews
Страна: США, Hollywood Pictures Corporation (II)
Жанр: Фантастика, ужасы
Год выпуска: 1959
Продолжительность: 01:08:33
Перевод: Одноголосый закадровый Трамвай-фильм
Cубтитры: Португальские
Оригинальная аудиодорожка: Английский
Режиссер: Рэй Келлогг / Ray Kellogg
В ролях: Ингрид Гуд, Кен Кертис, Гордон МакЛендон, Баруч Люмет, Джадж Генри Дюпри, Альфредо ДеСото
Описание: Классический ужастик-фантастика.Настолько был популярен в свое время, что сейчас его восстановили и колоризовали.Химические отходы и радиация превращают миролюбивых землероек не только в гигантских монстров, но также способствуют значительному повышению их интеллекта. После того, как они съедают всех животных на острове, у них не остается другого выбора, как питаться людьми…
Качество видео: DVDRip-AVC
Формат видео: MKV
Видео: x264, 1841 Кбит/с, 704х528, 23,976 к/с, crf=21
Аудио 1: Русский (AC3, 2 ch, 192 Кбит/с),
Аудио 2: Английский (AC3, 2 ch, 192 Кбит/с)
Субтитры: Португальские, srt

Релиз

Рип с ДВД5, монтаж - sasha20072007
Русская озвучка и перевод: одноголосый закадровый "Трамвай-фильм"
Подгонка русской дорожки с VHS релиза - SilverBeast
Сравнение с исходником DVD5

Дополнительно

Другие названия:
Die Nacht der unheimlichen Bestien West Germany
The Attack of the Killer Shrews (undefined)
The Killer Shrews France
Слоган «All that was left after...THE KILLER SHREWS!»
Для удаления и добавления дорожек в mkv используйте бесплатную mkvmerge GUI 5.70

Рецензия

Токсичные химические отходы и распространившаяся радиация превращают невинных и миролюбивых землероек не только в гигантских и прожорливых монстров, но также способствуют значительному повышению их интеллекта. После того, как они съедают всех животных на своем острове, у них не остается другого выбора, как начать питаться людьми…
Ингрид Гуд была первой красавицей на конкурсе «Мисс Швеция». В фильме появляется Барух Люмет, известный бродвейский театральный актер и отец знаменитого режиссера Сиднея Люмета. Картина вышла в прокат США на пару с фильмом «Гигантский монстр Джила» (1959), который, наряду с этой картиной, стал режиссерским дебютом опытного постановщика спецэффектов Рэя Келлога. Картина считается одной из самых удачных независимых работ, которая получила не только общенациональный прокат, но и была продана для проката за рубежом. Продюсировал фильм актер Кен Кертис, который, к удивлению, не взял себе главную роль, а сыграл обыкновенного подвыпившего парня. При бюджете в 125 тысяч долларов картина в прокате США собрала 1 миллион. Оценка 2 балла.
-----------------------------------------------------------
«Землеройки-убийцы» это самый, что ни на есть, идеальный пример плохого старого фильма ужасов категории Б. Дурацкий генетический эксперимент совершенно случайно приводит к созданию целой стаи среднего размера собак, загримированных в идиотский, и абсолютно нереалистичный грим, больше напоминающий изъеденные молью, засохшие шкуры опоссумов. Хорошо, по сюжету существа должны быть гигантскими землеройками. Не имеет значения как они должны выглядеть, потому что любой здравомыслящий человек моментально увидит, что они из себя представляют: собаки в резиновых масках и шерстяных коврах. Монотонное действие, чьё развитие ограничивается всем, кроме нескольких «луговых» пейзажей, да пары-тройки крохотных комнат дома, в котором от угрозы отгородилась группа бесстрашных главных героев повествования. Также в картине присутствует несколько действительно мощных моментов, касающихся взаимоотношений Джеймса Беста и Кена Кёртиса. Разыграны эти немногочисленные сцены в духе классических и ставших ныне эталонами жанра, мелодраматических картин, и разыграны они, надо сказать, абсолютно не в тему. Единственным запоминающимся и «живым» персонажем картины, которому зритель сопереживает по ходу, происходящего на экране действия, становится капитан корабля, вооруженный мелкокалиберным пистолетом.

MediaInfo

Общее
Уникальный идентификатор : 175266580091977568336562628852063211571 (0x83DB1D906BEC4A60B0173E5E52DD1033)
Полное имя : E:\Zemlerojki.ubijtsy.tsvetnoj.1959.x264.DVDRip.sasha20072007.mkv
Формат : Matroska
Версия формата : Version 2
Размер файла : 1,09 Гбайт
Продолжительность : 1 ч. 8 м.
Общий поток : 2270 Кбит/сек
Название фильма : The Killer Shrews (Color) / 1959 / Землеройки-убийцы / rip by sasha20072007
Дата кодирования : UTC 2012-04-19 21:42:02
Программа кодирования : mkvmerge v5.5.0 ('Healer') built on Apr 16 2012 15:39:18
Библиотека кодирования : libebml v1.2.3 + libmatroska v1.3.0
Attachment : Yes
Видео
Идентификатор : 1
Формат : AVC
Формат/Информация : Advanced Video Codec
Профиль формата : High@L4.1
Параметр CABAC формата : Да
Параметр ReFrames формата : 10 кадров
Идентификатор кодека : V_MPEG4/ISO/AVC
Продолжительность : 1 ч. 8 м.
Битрейт : 1841 Кбит/сек
Ширина : 704 пикселя
Высота : 528 пикселей
Соотношение сторон : 4:3
Частота кадров : 23,976 кадра/сек
Цветовое пространство : YUV
Субдискретизация насыщенности : 4:2:0
Битовая глубина : 8 бит
Тип развёртки : Прогрессивная
Бит/(Пиксели*Кадры) : 0.207
Размер потока : 903 Мбайт (81%)
Библиотека кодирования : x264 core 120 r2164 da19765
Настройки программы : cabac=1 / ref=10 / deblock=1:-3:-3 / analyse=0x3:0x133 / me=umh / subme=11 / psy=1 / psy_rd=1.00:0.19 / mixed_ref=1 / me_range=24 / chroma_me=1 / trellis=2 / 8x8dct=1 / cqm=0 / deadzone=6,6 / fast_pskip=1 / chroma_qp_offset=-3 / threads=12 / sliced_threads=0 / nr=0 / decimate=0 / interlaced=0 / bluray_compat=0 / constrained_intra=0 / bframes=10 / b_pyramid=2 / b_adapt=2 / b_bias=0 / direct=3 / weightb=1 / open_gop=0 / weightp=2 / keyint=220 / keyint_min=22 / scenecut=40 / intra_refresh=0 / rc_lookahead=60 / rc=crf / mbtree=1 / crf=21.0 / qcomp=0.80 / qpmin=0 / qpmax=69 / qpstep=4 / vbv_maxrate=17500 / vbv_bufsize=14000 / crf_max=0.0 / nal_hrd=none / ip_ratio=1.20 / aq=1:0.60
Default : Да
Forced : Нет
Аудио #1
Идентификатор : 2
Формат : AC-3
Формат/Информация : Audio Coding 3
Расширение режима : CM (complete main)
Параметр Endianness формата : Big
Идентификатор кодека : A_AC3
Продолжительность : 1 ч. 8 м.
Вид битрейта : Постоянный
Битрейт : 192 Кбит/сек
Каналы : 2 канала
Расположение каналов : Front: L R
Частота : 48,0 КГц
Битовая глубина : 16 бит
Метод сжатия : С потерями
Задержка видео : 503 мс.
Размер потока : 94,1 Мбайт (8%)
Заголовок : Русский (Трамвай-фильм)
Язык : Russian
Default : Да
Forced : Нет
Аудио #2
Идентификатор : 3
Формат : AC-3
Формат/Информация : Audio Coding 3
Расширение режима : CM (complete main)
Параметр Endianness формата : Big
Идентификатор кодека : A_AC3
Продолжительность : 1 ч. 8 м.
Вид битрейта : Постоянный
Битрейт : 192 Кбит/сек
Каналы : 2 канала
Расположение каналов : Front: L R
Частота : 48,0 КГц
Битовая глубина : 16 бит
Метод сжатия : С потерями
Размер потока : 94,1 Мбайт (8%)
Язык : English
Default : Нет
Forced : Нет
Текст
Идентификатор : 4
Формат : UTF-8
Идентификатор кодека : S_TEXT/UTF8
Идентификатор кодека/Информация : UTF-8 Plain Text
Язык : Portuguese
Default : Нет
Forced : Нет
Меню
00:00:00.000 : :Chapter 01
00:06:39.334 : :Chapter 02
00:17:27.168 : :Chapter 03
00:27:57.335 : :Chapter 04
00:35:09.203 : :Chapter 05
00:46:38.537 : :Chapter 06
00:54:13.505 : :Chapter 07
00:58:59.005 : :Chapter 08
01:08:28.372 : :Chapter 09

Скриншоты


[Profile] [PM]
Quick Reply

Name:

            
Heads necessary to send messages to enable JavaScript
Display posts:    
Reply to topic

Current time is: 22-Sep 09:57

All times are UTC + 3



You cannot post new topics in this forum
You can reply to topics in this forum
You cannot edit your posts in this forum
You cannot delete your posts in this forum
You cannot vote in polls in this forum
You cannot attach files in this forum
You cannot download files in this forum