Гамбургская болезнь / Гамбургский синдром / Die Hamburger Krankheit (Питер Флайшманн) [1979 г., Фантастика, постапокалипсис, DVDRip-AVC] ЛО (zamez)

Reply to topic
 
Author Message

admin ®

Gender: Male

Longevity: 7 years 2 months

Posts: 4721

Post 06-Feb-2013 18:08

[Quote]

Гамбургская болезнь / Гамбургский синдром / Die Hamburger Krankheit
Год выпуска: 1979
Страна: Франция, Германия (ФРГ), Биоскоп Фильм, Coleidon-Film, Hallelujah Films
Жанр: Фантастика, постапокалипсис, катастрофа
Продолжительность: 01:49:07
Перевод: Любительский (одноголосый) zamez
Режиссер: Питер Флайшманн
В ролях: Хельмут Грим, Фернандо Аррабаль, Карлине Зайзер, Тило Прюкнер, Ульрих Вильдгрубер, Райнер Лангханс, Леопольд Хайниш, Роми Хааг, Эвелин Кюннеке, Петер фон Цан
Описание: Современный Гамбург поражает новая чума — неизвестный смертельный вирус. Один из ученых-медиков, несогласный с официальной трактовкой заболевания, стремится с группой единомышленников вырваться из карантинной зоны.
Качество: DVDRip-AVC
Формат: MKV
Видео: x264, 2200 кбит/с, 708x452@772x452, 25 к/с
Аудио 1: Русский (AC3, 2 ch, 192 Кбит/с)
Аудио 2: Немецкий (AC3, 2 ch, 192 Кбит/с)
Субтитры : Английские


Релиз

Рип найден на синемагеддоне
Для Украины: рип дополнительно залит в файлохранилище
Для удаления и добавления дорожек в mkv используйте бесплатную mkvmerge GUI 6.00

Дополнительно

Первый вариант фильма имел хронометраж 126 минут. А музыку к нему написал немецкий композитор Эрих Ферстль.
Also Known As (AKA)
El virus de Hamburgo Spain
Hamburgi betegség Hungary
La maladie de Hambourg France
The Hamburg Syndrome International (English title)

Рецензия

Сюрреалистическая сатира
Фильм 42-летнего немецкого режиссёра Петера Флайшманна о полицейском обществе, которое жестоко преследует людей, заражённых никому не ведомой эпидемией (можно считать, что предугадана «эпоха СПИДа»), скорее всего, следует традициям французской и испанской культуры с их карнавальным отношением к смерти, вовсе лишённой типичного для немцев романтически-мистически-философского ореола. Пристрастия Флайшманна, настроенного весьма язвительно и мрачно, лежат, безусловно, за пределами германского менталитета. Это доказывает и присутствие в качестве одного из сценаристов «Гамбургской болезни» Роланда Топора, крупного французского сюрреалиста польско-еврейского происхождения, а среди актёров — экстравагантного, карликоподобного испанца Фернандо Аррабаля, авангардиста, который смешал в своём творчестве сюрреализм, абсурд и театр жестокости, словно перенёс в искусство законы корриды. Поэтому не было случайным и последующее обращение Петера Флайшманна к прозе Аркадия и Бориса Стругацких в ленте «Трудно быть богом». Его невписываемость в кино Германии проявилась и в том, что почти за тридцать лет Флайшманн снял только семь игровых картин.
1990

MediaInfo

Общее
Уникальный идентификатор : 208986817059577157810650042937308228331 (0x9D39659AF540913F9235AD20428A2AEB)
Полное имя : F:\Гамбургская болезнь 1979.x264.DVDRip.AVC.Rus.Ger.mkv
Формат : Matroska
Версия формата : Version 4 / Version 2
Размер файла : 1,97 Гбайт
Продолжительность : 1 ч. 49 м.
Общий поток : 2586 Кбит/сек
Название фильма : Гамбургская болезнь / Die Hamburger Krankheit / 1979
Дата кодирования : UTC 2013-02-06 14:58:32
Программа кодирования : mkvmerge v6.0.0 ('Coming Up For Air') built on Feb 3 2013 18:12:30
Библиотека кодирования : libebml v1.3.0 + libmatroska v1.4.0
Видео
Идентификатор : 1
Формат : AVC
Формат/Информация : Advanced Video Codec
Профиль формата : Main@L3.1
Параметр CABAC формата : Нет
Параметр ReFrames формата : 8 кадров
Идентификатор кодека : V_MPEG4/ISO/AVC
Продолжительность : 1 ч. 49 м.
Битрейт : 2200 Кбит/сек
Ширина : 708 пикселей
Высота : 452 пикселя
Соотношение сторон : 1,709
Режим частоты кадров : Постоянный
Частота кадров : 25,000 кадров/сек
Цветовое пространство : YUV
Субдискретизация насыщенности : 4:2:0
Битовая глубина : 8 бит
Тип развёртки : Прогрессивная
Бит/(Пиксели*Кадры) : 0.275
Размер потока : 1,64 Гбайт (83%)
Библиотека кодирования : x264 core 79 r1332M 70f8869
Настройки программы : cabac=0 / ref=8 / deblock=1:-2:-2 / analyse=0:0x131 / me=umh / subme=9 / psy=1 / psy_rd=1.0:0.0 / mixed_ref=0 / me_range=24 / chroma_me=1 / trellis=0 / 8x8dct=0 / cqm=0 / deadzone=21,11 / chroma_qp_offset=-2 / threads=3 / nr=0 / decimate=1 / mbaff=0 / constrained_intra=0 / bframes=5 / b_pyramid=0 / b_adapt=2 / b_bias=0 / direct=3 / wpredb=1 / wpredp=0 / keyint=250 / keyint_min=25 / scenecut=0 / rc=2pass / mbtree=0 / bitrate=2200 / ratetol=1.0 / qcomp=0.60 / qpmin=10 / qpmax=51 / qpstep=4 / cplxblur=20.0 / qblur=0.5 / ip_ratio=1.40 / pb_ratio=1.30 / aq=0
Язык : English
Default : Нет
Forced : Нет
Аудио #1
Идентификатор : 2
Формат : AC-3
Формат/Информация : Audio Coding 3
Расширение режима : CM (complete main)
Параметр Endianness формата : Big
Идентификатор кодека : A_AC3
Продолжительность : 1 ч. 49 м.
Вид битрейта : Постоянный
Битрейт : 192 Кбит/сек
Каналы : 2 канала
Расположение каналов : Front: L R
Частота : 48,0 КГц
Битовая глубина : 16 бит
Метод сжатия : С потерями
Размер потока : 150 Мбайт (7%)
Заголовок : Русский ЛО
Язык : Russian
Default : Да
Forced : Да
Аудио #2
Идентификатор : 3
Формат : AC-3
Формат/Информация : Audio Coding 3
Расширение режима : CM (complete main)
Параметр Endianness формата : Big
Идентификатор кодека : A_AC3
Продолжительность : 1 ч. 49 м.
Вид битрейта : Постоянный
Битрейт : 192 Кбит/сек
Каналы : 2 канала
Расположение каналов : Front: L R
Частота : 48,0 КГц
Битовая глубина : 16 бит
Метод сжатия : С потерями
Размер потока : 150 Мбайт (7%)
Язык : German
Default : Нет
Forced : Нет
Текст
Идентификатор : 4
Формат : UTF-8
Идентификатор кодека : S_TEXT/UTF8
Идентификатор кодека/Информация : UTF-8 Plain Text
Язык : English
Default : Да
Forced : Нет
cd Рип дополнительно залит на mail.ru cd2
[Profile] [PM]

Guest

Gender: Unknown

Post 24-May-2014 12:16 (after 1 year 3 months)

[Quote]

Считаю,что такие фильмы больше соответствуют авангардистскому кино,чем фантастике.
Это взгляд на безумие (вызванное появлением загадочной эпидемии) глазами простой девушки,единственно нормальной среди сумашествия и хаоса.Большинство героев вызывает антипатию (особенно фрик в инвалидной коляске).
 
Quick Reply

Name:

            
Heads necessary to send messages to enable JavaScript
Display posts:    
Reply to topic

Current time is: 21-Nov 12:35

All times are UTC + 3



You cannot post new topics in this forum
You can reply to topics in this forum
You cannot edit your posts in this forum
You cannot delete your posts in this forum
You cannot vote in polls in this forum
You cannot attach files in this forum
You cannot download files in this forum