Прототип / Прототип X29A / Prototype / Prototype X29A (Phillip J. Roth / Филлип Дж. Рот) [1992 г., фантастика, боевик, постапокалипсис, BDRip-AVC] ПМ (Варус-видео), АО (А.Гаврилов)

Reply to topic
 
Author Message

AlexNT60 ®

Gender: Male

Longevity: 6 years 9 months

Posts: 117

Location: СПб

Post 05-Feb-2013 14:47

[Quote]

Прототип / Прототип X29A / Prototype / Prototype X29A
Год выпуска: 1992
Страна: США
Жанр: фантастика, боевик, постапокалипсис
Продолжительность: 1:37:50
Перевод 1: ПМ Варус-видео с VHS
Перевод 2: Авторский (одноголосый) А.Гаврилов
Режиссер: Филлип Джей Рот / Phillip J. Roth
В ролях: Лэйн Ленхарт, Роберт Тоссберг, Бренда Суонсон, Paul Coulj, Митчелл Кокс, Себастьян Скандуцци, Харольд Кэннон, Зак Несис, Вун Янг Парк, Bill Barschdorf
Описание: Лос-Анджелес, 2057 год. Люди создали чересчур сообразительных кибернетически измененных существ под названием ОМЕГИ, которые начали так изменять свою программу, что время это назвали временем безумных разумов. Чтобы покончить со столь неудачным экспериментом, были созданы полностью кибернетические существа. Их назвали ПРОТОТИПЫ. Задача у них была одна — полностью уничтожить ОМЕГ. Люди тоже есть, но жизни их не позавидуешь. Фильм представляет собой гибрид Терминатора и Робокопа, но на порядок ниже по качеству. Первая роль в кино Себастьена Скандуцци

Качество: BDRip-AVC
Формат: MKV
Видео: x264, 1737 кбит/с, 1024x576, 23.976 к/с, crf=18,33
Аудио 1: Русский ПМ (Варус-видео) (AC3, 2 ch, 192 Кбит/с)
Аудио 2: Русский АО (Гаврилов) (AC3, 2 ch, 192 Кбит/с)
Аудио 3: Английский (AC3, 2 ch, 192 Кбит/с)


Работа над релизом:
Рип - kosmoaelita
Синхронизация русской ПМ дорожки - kosmoaelita
За дорогу ПМ Варус Видео спасибо Kino-profan.

Дополнительно

рейтинг MPAA лицам до 17 лет обязательно присутствие взрослого
слоган «Mankind doesn't stand a chance.»
Also Known As (AKA)
Prototype X29A USA (poster title)
Prototypo Greece (video title)

Рецензия

MediaInfo

Общее
Уникальный идентификатор : 204300894413954614346310811422293015394 (0x99B2EBC813E26868AAF4C90B74D0BB62)
Полное имя : F:\Prototype X29A 1992.x264.BDRip.AVC.2xRus.kosmoaelita.mkv
Формат : Matroska
Версия формата : Version 4 / Version 2
Размер файла : 1,58 Гбайт
Продолжительность : 1 ч. 37 м.
Общий поток : 2317 Кбит/сек
Название фильма : Prototype X29A (1992) rip from BDRip-720p by sasha20072007 (kosmoaelita) (2016-02-03), crf=18.33
Дата кодирования : UTC 2016-12-04 21:50:01
Программа кодирования : mkvmerge v6.6.0 ('The Edge Of The In Between') built on Dec 1 2013 17:55:00
Библиотека кодирования : libebml v1.3.0 + libmatroska v1.4.1
Attachments : Prototype.X29A.1992.X264.720p.BDRip.AVC..mkv.encoding.log / poster Prototype, 1992.jpg
Видео
Идентификатор : 1
Формат : AVC
Формат/Информация : Advanced Video Codec
Профиль формата : High@L4.1
Параметр CABAC формата : Да
Параметр ReFrames формата : 8 кадров
Идентификатор кодека : V_MPEG4/ISO/AVC
Продолжительность : 1 ч. 37 м.
Битрейт : 1737 Кбит/сек
Ширина : 1024 пикселя
Высота : 576 пикселей
Соотношение сторон : 16:9
Режим частоты кадров : Постоянный
Частота кадров : 23,976 (24000/1001) кадра/сек
Цветовое пространство : YUV
Субдискретизация насыщенности : 4:2:0
Битовая глубина : 8 бит
Тип развёртки : Прогрессивная
Бит/(Пиксели*Кадры) : 0.123
Размер потока : 1,16 Гбайт (73%)
Заголовок : kosmoaelita
Библиотека кодирования : x264 core 130 r2273 b3065e6
Настройки программы : cabac=1 / ref=8 / deblock=1:-1:-1 / analyse=0x3:0x133 / me=umh / subme=11 / psy=1 / psy_rd=0.99:0.14 / mixed_ref=1 / me_range=24 / chroma_me=1 / trellis=2 / 8x8dct=1 / cqm=0 / deadzone=21,11 / fast_pskip=1 / chroma_qp_offset=-3 / threads=6 / lookahead_threads=1 / sliced_threads=0 / nr=0 / decimate=1 / interlaced=0 / bluray_compat=0 / constrained_intra=0 / bframes=8 / b_pyramid=2 / b_adapt=2 / b_bias=0 / direct=3 / weightb=1 / open_gop=0 / weightp=2 / keyint=210 / keyint_min=21 / scenecut=40 / intra_refresh=0 / rc_lookahead=80 / rc=2pass / mbtree=1 / bitrate=1737 / ratetol=1.0 / qcomp=0.65 / qpmin=0 / qpmax=69 / qpstep=4 / cplxblur=20.0 / qblur=0.5 / ip_ratio=1.25 / aq=1:0.90
Default : Да
Forced : Нет
Цветовой диапазон : Limited
Основные цвета : BT.709
Характеристики трансфера : BT.709
Коэффициенты матрицы : BT.709
Statistics Tags Issue : mkvmerge v7.8.0 ('River Man') 32bit built on Mar 27 2015 16:18:02 2016-02-02 22:33:32 / mkvmerge v6.6.0 ('The Edge Of The In Between') built on Dec 1 2013 17:55:00 2016-12-04 21:50:01
FromStats_BitRate : 1736961
FromStats_Duration : 01:37:50.782000000
FromStats_FrameCount : 140758
FromStats_StreamSize : 1274665532
Аудио #1
Идентификатор : 2
Формат : AC-3
Формат/Информация : Audio Coding 3
Расширение режима : CM (complete main)
Параметр Endianness формата : Big
Идентификатор кодека : A_AC3
Продолжительность : 1 ч. 37 м.
Вид битрейта : Постоянный
Битрейт : 192 Кбит/сек
Каналы : 2 канала
Расположение каналов : Front: L R
Частота : 48,0 КГц
Частота кадров : 31,250 кадров/сек (1536 spf)
Метод сжатия : С потерями
Размер потока : 134 Мбайт (8%)
Заголовок : Русский ПМ (Варус Видео) с VHS
Язык : Russian
Default : Да
Forced : Нет
Аудио #2
Идентификатор : 3
Формат : AC-3
Формат/Информация : Audio Coding 3
Расширение режима : CM (complete main)
Параметр Endianness формата : Big
Идентификатор кодека : A_AC3
Продолжительность : 1 ч. 37 м.
Вид битрейта : Постоянный
Битрейт : 192 Кбит/сек
Каналы : 2 канала
Расположение каналов : Front: L R
Частота : 48,0 КГц
Частота кадров : 31,250 кадров/сек (1536 spf)
Метод сжатия : С потерями
Размер потока : 134 Мбайт (8%)
Заголовок : Русский АО (А.Гаврилов)
Язык : Russian
Default : Нет
Forced : Нет
Аудио #3
Идентификатор : 4
Формат : AC-3
Формат/Информация : Audio Coding 3
Расширение режима : CM (complete main)
Параметр Endianness формата : Big
Идентификатор кодека : A_AC3
Продолжительность : 1 ч. 37 м.
Вид битрейта : Постоянный
Битрейт : 192 Кбит/сек
Каналы : 2 канала
Расположение каналов : Front: L R
Частота : 48,0 КГц
Частота кадров : 31,250 кадров/сек (1536 spf)
Метод сжатия : С потерями
Размер потока : 134 Мбайт (8%)
Язык : English
Default : Нет
Forced : Нет
Меню
00:00:00.000 : :Глава 01
00:11:03.000 : :Глава 02
00:23:23.000 : :Глава 03
00:33:32.150 : :Глава 04
00:47:52.000 : :Глава 05
00:58:38.000 : :Глава 06
01:12:00.150 : :Глава 07
01:26:42.150 : :Глава 08
01:34:28.000 : :Глава 09

Скриншоты









Скринлист

cd Рип дополнительно залит на ОБЛАКО cd2
[Profile] [PM]

admin

Gender: Male

Longevity: 7 years 2 months

Posts: 4721

Post 03-Feb-2016 06:29 (after 2 years 11 months)

[Quote]

SATRip заменен на BDRip
SATRip vs. BDRip
VHSRip vs. BDRip
[Profile] [PM]

kosmoaelita

Gender: Male

Longevity: 49 years

Posts: 966

Post 05-Dec-2016 01:05 (after 10 months 1 day)

[Quote]

Добавлена русская ПМ дорожка от Варус-видео (с VHS)
[Profile] [PM]
Quick Reply

Name:

            
Heads necessary to send messages to enable JavaScript
Display posts:    
Reply to topic

Current time is: 20-Nov 08:09

All times are UTC + 3



You cannot post new topics in this forum
You can reply to topics in this forum
You cannot edit your posts in this forum
You cannot delete your posts in this forum
You cannot vote in polls in this forum
You cannot attach files in this forum
You cannot download files in this forum