Слитис / Нашествие Слитисов / Spawn of the Slithis / Slithis (Стивен Трэкслер / Stephen Traxler) [1978, США, Фантастика, ужасы, BDRip-1080p] AVO (А. Дольский + Original Eng

Reply to topic
 
Author Message

admin ®

Gender: Male

Longevity: 7 years 3 months

Posts: 4811

Post 05-Sep-2012 16:29

[Quote]

Слитис / Нашествие Слитисов / Spawn of the Slithis / Slithis
Страна: США
Жанр: Фантастика, ужасы
Год выпуска: 1978
Продолжительность: 01:26:38
Перевод: Авторский (одноголосый закадровый) (А. Дольский)
Cубтитры: нет
Оригинальная аудиодорожка: английский
Режиссер: Стивен Трэкслер / Stephen Traxler
В ролях: Алан Бланчард, Дж.С. Клер, Dennis Lee Falt, Мелло Александрия, Win Condict, Rocky Fumarelli, Джон Хэтфилд, Хай Пайк
Описание: Утечка токсичных отходов в районе калифорнийского городка приводит к появлению в прибрежных водах кровожадного монстра-мутанта, который вскоре начинает пробовать на зуб домашних животных и их хозяев.
Качество видео: BDRip-1080p
Формат видео: MKV
Видео: x264, 11500 кб/с, 1920x1080, 23.976 к/с
Аудио 1: Русский АО (AC3, 2кн, 224 Кбит/с)
Аудио 2: Английский (AC3, 2кн, 640 Кбит/с)
Работа над релизом:
Видеоряд найден на rarbg2018.org
Синхронизация русской дорожки - kosmoaelita
Релиз русской дорожки на синемаскопе - Kruger


Пример русского перевода

Дополнительно

Другие названия:
Slithis Sweden (video title) / USA (promotional abbreviation)
Slithis, o Monstro Portugal (imdb display title)
Слоган «Hell hath no fury...like»
бюджет $100 000
Страничка на Кинопоиске
Для удаления и добавления дорожек в mkv используйте бесплатную mkvmerge GUI 5.70

MediaInfo

Общее
Уникальный идентификатор : 211891296575157997024331667583002415102 (0x9F68C780654E727196BFF9BD5FDF0FFE)
Полное имя : N:\BD-DISC\Spawn.of.the.Slithis.1978.1080p.BluRay.x264.DTS-FGT\Spawn of the Slithis 1978.x264.BDRip.1080p.Rus.kosmoaelita.mkv
Формат : Matroska
Версия формата : Version 4 / Version 2
Размер файла : 7,45 Гбайт
Продолжительность : 1 ч. 26 м.
Общий поток : 12,3 Мбит/сек
Название фильма : Слитис / Нашествие слитисов / Spawn of the Slithis / 1978 / kosmoaelita
Дата кодирования : UTC 2019-02-15 00:38:17
Программа кодирования : mkvmerge v6.6.0 ('The Edge Of The In Between') built on Dec 1 2013 17:55:00
Библиотека кодирования : libebml v1.3.0 + libmatroska v1.4.1
Attachments : POSTER Spawn-of-the-Slithis.jpg
Видео
Идентификатор : 1
Формат : AVC
Формат/Информация : Advanced Video Codec
Профиль формата : High@L4.1
Параметр CABAC формата : Да
Параметр ReFrames формата : 4 кадра
Идентификатор кодека : V_MPEG4/ISO/AVC
Продолжительность : 1 ч. 26 м.
Битрейт : 11,5 Мбит/сек
Ширина : 1920 пикселей
Высота : 1080 пикселей
Соотношение сторон : 16:9
Режим частоты кадров : Постоянный
Частота кадров : 23,976 (24000/1001) кадра/сек
Цветовое пространство : YUV
Субдискретизация насыщенности : 4:2:0
Битовая глубина : 8 бит
Тип развёртки : Прогрессивная
Бит/(Пиксели*Кадры) : 0.231
Размер потока : 6,78 Гбайт (91%)
Заголовок : http://kosmoaelita.com/viewtopic.php?t=56
Библиотека кодирования : x264 core 148 r2795M aaa9aa8
Настройки программы : cabac=1 / ref=4 / deblock=1:-2:-2 / analyse=0x3:0x113 / me=umh / subme=9 / psy=1 / psy_rd=1.00:0.15 / mixed_ref=1 / me_range=16 / chroma_me=1 / trellis=2 / 8x8dct=1 / cqm=0 / deadzone=21,11 / fast_pskip=1 / chroma_qp_offset=-3 / threads=24 / lookahead_threads=3 / sliced_threads=0 / nr=0 / decimate=1 / interlaced=0 / bluray_compat=0 / constrained_intra=0 / bframes=3 / b_pyramid=2 / b_adapt=2 / b_bias=0 / direct=3 / weightb=1 / open_gop=0 / weightp=2 / keyint=250 / keyint_min=25 / scenecut=40 / intra_refresh=0 / rc_lookahead=50 / rc=abr / mbtree=1 / bitrate=11500 / ratetol=1.0 / qcomp=0.60 / qpmin=0 / qpmax=69 / qpstep=4 / vbv_maxrate=31250 / vbv_bufsize=31250 / nal_hrd=none / filler=0 / ip_ratio=1.40 / aq=1:1.00
Язык : English
Default : Да
Forced : Нет
Аудио #1
Идентификатор : 2
Формат : AC-3
Формат/Информация : Audio Coding 3
Расширение режима : CM (complete main)
Параметр Endianness формата : Big
Идентификатор кодека : A_AC3
Продолжительность : 1 ч. 26 м.
Вид битрейта : Постоянный
Битрейт : 224 Кбит/сек
Каналы : 2 канала
Расположение каналов : Front: L R
Частота : 48,0 КГц
Частота кадров : 31,250 кадров/сек (1536 spf)
Метод сжатия : С потерями
Размер потока : 139 Мбайт (2%)
Заголовок : Русский АО (А.Дольский)
Язык : Russian
Default : Да
Forced : Нет
Аудио #2
Идентификатор : 3
Формат : AC-3
Формат/Информация : Audio Coding 3
Расширение режима : CM (complete main)
Параметр Endianness формата : Big
Идентификатор кодека : A_AC3
Продолжительность : 1 ч. 26 м.
Вид битрейта : Постоянный
Битрейт : 640 Кбит/сек
Каналы : 2 канала
Расположение каналов : Front: L R
Частота : 48,0 КГц
Частота кадров : 31,250 кадров/сек (1536 spf)
Метод сжатия : С потерями
Размер потока : 397 Мбайт (5%)
Язык : English
Default : Нет
Forced : Нет
Меню
00:00:00.000 : en:Chapter 01
00:05:13.855 : en:Chapter 02
00:09:23.771 : en:Chapter 03
00:18:03.248 : en:Chapter 04
00:24:10.740 : en:Chapter 05
00:29:11.458 : en:Chapter 06
00:37:15.024 : en:Chapter 07
00:42:53.946 : en:Chapter 08
00:50:20.267 : en:Chapter 09
00:56:18.458 : en:Chapter 10
01:04:22.817 : en:Chapter 11
01:11:21.568 : en:Chapter 12
01:17:12.002 : en:Chapter 13

Скриншоты










Скринлист

cd Рип дополнительно залит на mail.ru cd2
[Profile] [PM]

pompilius

Gender: Male

Longevity: 2 years 1 month

Posts: 240

Post 17-Jul-2018 22:41 (after 5 years 10 months)

[Quote]

Ссылка на облако не рабочая
[Profile] [PM]

Guest

Gender: Unknown

Longevity: 49 years

Post 18-Jul-2018 02:55 (after 4 hours)

[Quote]

Исправлено
[Profile] [PM]

Guest

Gender: Unknown

Longevity: 49 years

Post 15-Feb-2019 03:55 (after 6 months 28 days)

[Quote]

Замена на BDRip-1080p
[Profile] [PM]
Quick Reply

Name:

            
Heads necessary to send messages to enable JavaScript
Display posts:    
Reply to topic

Current time is: 07-Dec 06:57

All times are UTC + 3



You cannot post new topics in this forum
You can reply to topics in this forum
You cannot edit your posts in this forum
You cannot delete your posts in this forum
You cannot vote in polls in this forum
You cannot attach files in this forum
You cannot download files in this forum