Голова дракона / В обьятиях тьмы / Doragon heddo (Иоси Айда / Joji Iida) [2003 г., Фантастика, катастрофа, постапокалипсис, DVDRip] ПО

Reply to topic
 
Author Message

Guest ®

Gender: Unknown

Post 31-Jan-2013 11:27

[Quote]

Голова дракона / В обьятиях тьмы / Doragon heddo
Год выпуска: 2003
Страна: Япония
Жанр: Фантастика, катастрофа, постапокалипсис
Продолжительность: 02:02:23
Перевод: Профессиональный (одноголосый)
Оригинальная аудиодорожка: Японский
Режиссер: Иоси Айда / Joji Iida
В ролях: Ёшимаса Кондо, Дзинпаки Недзу, Кьюсаку Шимада, Миноре Терада, Кодзи Якусё
Описание: Отличная постапокалиптика в мрачных тонах по мотивам комиксов Minetaro Mochizuki. Извержение огромного вулкана преображает Японию: с неба сыпятся нескончаемым потоком тонны пепла, дома стоят разрушенными, выжившие и мародеры бродят по развалинам в судорожных попытках выжить в этом аду.
Доп. информация:
2003г. номинант на лучший фильм Каталонского кинофестиваля Sitges - Catalonian International Film Festival.
2004г. премия Kinema Junpo Award лучшему актеру.
2004г. Yokohama Film Festival приз за лучшую мужскую роль Satoshi Tsumabuki.
Качество: DVDRip
Формат: AVI
Видео: Xvid 720x288 23.976fps 1067kbps
Аудио 1: Dolby AC3 48000Hz 6ch 448kbps
Аудио 2: Dolby AC3 48000Hz 6ch 448kbps


Релиз

Дополнительно

рейтинг MPAA лицам до 17 лет обязательно присутствие взрослого
Also Known As (AKA)
Dragon Head International (English title)

Рецензия

Если Вам в руки попал этот фильм, несколько раз подумайте стоит ли Вам его смотреть, два часа времени тратить. Взвесьте для себя :
- Вы любите Азиатское кино?
- Вы любите постапокалиптику в мрачных тонах?
- Вы любите артхауз?
- И последнее, Вы любите все в месте?
Если на все вопросы Вы ответили положительно, тогда этот фильм для Вас, но хотел бы заметить есть много других азиатских фильмов на которые стоит обратить внимание в первую очередь, а этот… тематика ясна, но он вялотекущий настолько, что хочется перемотать. Но так как я не из таких, пришлось смотреть, может в конце, что припасено, ну знаете, бывает, типа козырь в рукаве и все такое, но нет… ничего подобного я не увидел, кроме нескольких неувязок… хотел их написать было, но подумал вдруг просмотр кому испорчу, правильно? Картинка в фильме конечно красива, смотришь так и думаешь, эти… разнесли всю Японию по кускам, и на руинах сняли фильм. Визуально здорово, но досидеть, досмотреть до конца этот фильм, сможет сильнейший.
5 из 10

Mediainfo

General
Complete name : E:\Kino\Голова Дракона(2003Doragon heddo)_DVDRip.avi
Format : AVI
Format/Info : Audio Video Interleave
File size : 1.69 GiB
Duration : 2h 2mn
Overall bit rate : 1 978 Kbps
Writing application : VirtualDubMod 1.5.4.1 (build 2178/release)
Writing library : VirtualDubMod build 2178/release
Video
ID : 0
Format : MPEG-4 Visual
Format profile : Advanced Simple@L5
Format settings, BVOP : No
Format settings, QPel : No
Format settings, GMC : No warppoints
Format settings, Matrix : Custom
Codec ID : XVID
Codec ID/Hint : XviD
Duration : 2h 2mn
Bit rate : 1 068 Kbps
Width : 720 pixels
Height : 288 pixels
Display aspect ratio : 2.500
Frame rate : 23.976 fps
Color space : YUV
Chroma subsampling : 4:2:0
Bit depth : 8 bits
Scan type : Progressive
Compression mode : Lossy
Bits/(Pixel*Frame) : 0.215
Stream size : 935 MiB (54%)
Writing library : XviD 1.2.1 (UTC 2008-12-04)
Audio #1
ID : 1
Format : AC-3
Format/Info : Audio Coding 3
Mode extension : CM (complete main)
Format settings, Endianness : Big
Codec ID : 2000
Duration : 2h 2mn
Bit rate mode : Constant
Bit rate : 448 Kbps
Channel(s) : 6 channels
Channel positions : Front: L C R, Side: L R, LFE
Sampling rate : 48.0 KHz
Bit depth : 16 bits
Compression mode : Lossy
Stream size : 392 MiB (23%)
Alignment : Split accross interleaves
Interleave, duration : 42 ms (1.00 video frame)
Interleave, preload duration : 500 ms
Language : Japanese
Audio #2
ID : 2
Format : AC-3
Format/Info : Audio Coding 3
Mode extension : CM (complete main)
Format settings, Endianness : Big
Codec ID : 2000
Duration : 2h 2mn
Bit rate mode : Constant
Bit rate : 448 Kbps
Channel(s) : 6 channels
Channel positions : Front: L C R, Side: L R, LFE
Sampling rate : 48.0 KHz
Bit depth : 16 bits
Compression mode : Lossy
Stream size : 392 MiB (23%)
Alignment : Split accross interleaves
Interleave, duration : 42 ms (1.00 video frame)
Interleave, preload duration : 500 ms
Language : Russian

Скриншоты

 
Display posts:    
Reply to topic

Current time is: 20-Nov 07:00

All times are UTC + 3



You cannot post new topics in this forum
You cannot reply to topics in this forum
You cannot edit your posts in this forum
You cannot delete your posts in this forum
You cannot vote in polls in this forum
You cannot attach files in this forum
You cannot download files in this forum